DAMARES - Apocalipse (Ao vivo legendado)

Size 72.073 MB   2 seeders     Added 2011-08-17 02:44:49

Stream torrent
Starting‥ You need BitLord! Get it from 1BitLord.com
To download or stream you need BitLord. Visit them at BitLord.com
 Video #0
 ID : 0
 Format : MPEG-4 Visual
 Format profile : Advanced Simple@L5
 Format settings, BVOP : 2
 Format settings, QPel : No
 Format settings, GMC : No warppoints
 Format settings, Matrix : Default (H.263)
 Muxing mode : Packed bitstream
 Codec ID : XVID
 Codec ID/Hint : XviD
 Duration : 6mn 39s
 Bit rate : 1 240 Kbps
 Width : 624 pixels
 Height : 336 pixels
 Display aspect ratio : 1.857
 Frame rate : 23.976 fps
 Color space : YUV
 Chroma subsampling : 4:2:0
 Bit depth : 8 bits
 Scan type : Progressive
 Compression mode : Lossy
 Bits/(Pixel*Frame) : 0.247
 Stream size : 59.1 MiB (86%)
 Writing library : XviD 1.3.0.dev55
 Audio #1
 ID : 1
 Format : MPEG Audio
 Format version : Version 1
 Format profile : Layer 3
 Mode : Joint stereo
 Mode extension : MS Stereo
 Codec ID : 55
 Codec ID/Hint : MP3
 Duration : 6mn 39s
 Bit rate mode : Constant
 Bit rate : 192 Kbps
 Channel(s) : 2 channels
 Sampling rate : 48.0 KHz
 Compression mode : Lossy
 Stream size : 9.15 MiB (13%)
 Alignment : Aligned on interleaves
 Interleave, duration : 42 ms (1.00 video frame)
 Interleave, preload duration : 504 ms
 
DAMARES - Apocalipse (Ao vivo legendado).avi 72.073 MB
Gathering some info...

Register and log in Isohunt and see no captcha anymore!

4000 symbols left
Hash CE665802163F1BC2792D96C90CF8E104207C251A