imdb
rating

6.4
Fright Night

Fright Night (2011)

Comedy, Horror

Full description
quality   dvdrip hd fullhd telesync x264

Fright Night 2011 WP - IMAGiNE [NO RAR]

Size 1.261 GB   0 seeders     Added 2011-08-17 14:42:55

Stream torrent
Starting‥ You need BitLord! Get it from 1BitLord.com
7.5
To download or stream you need BitLord. Visit them at BitLord.com
Fright Night 2011 WP - IMAGiNE [NO RAR]

Ripper ...........: IMAGiNE 
Video Codec.......: XVID 
Audio Codec.......:MP3 
Audio Bitrate.....:128 Runtime.......:1h 56mn
Subtitles.........:ENGLISH HARDCODED WHEN NEEDED Language..........:ENGLISH
Resolution...... 720 x 320 IMDb URL.......... http://www.imdb.com/title/tt1438176/

DETAILS:
Video
ID : 0
Format : MPEG-4 Visual
Format profile : Advanced Simple@L5
Format settings, BVOP : 2
Format settings, QPel : No
Format settings, GMC : No warppoints
Format settings, Matrix : Default (MPEG)
Muxing mode : Packed bitstream
Codec ID : XVID
Codec ID/Hint : XviD
Duration : 1h 56mn
Bit rate : 1 865 Kbps
Width : 720 pixels
Height : 320 pixels
Display aspect ratio : 2.25:1
Frame rate : 25.000 fps
Color space : YUV
Chroma subsampling : 4:2:0
Bit depth : 8 bits
Scan type : Progressive
Compression mode : Lossy
Bits/(Pixel*Frame) : 0.324
Stream size : 1.28 GiB (93%)
Writing library : XviD 64

Audio
ID : 1
Format : MPEG Audio
Format version : Version 1
Format profile : Layer 3
Mode : Joint stereo
Mode extension : MS Stereo
Codec ID : 55
Codec ID/Hint : MP3
Duration : 1h 56mn
Bit rate mode : Constant
Bit rate : 128 Kbps
Channel(s) : 2 channels
Sampling rate : 44.1 KHz
Compression mode : Lossy
Stream size : 89.7 MiB (6%)
Alignment : Split accross interleaves
Interleave, duration : 40 ms (1.00 video frame)

Plot: A remake of the 1985 original, teenager Charley Brewster (Yelchin) guesses that his new neighbor Jerry Dandrige (Farrell) is a vampire responsible for a string of recent deaths. When no one he knows believes him, he enlists Peter Vincent (Tennant), a self proclaimed vampire killer and Las Vegas magician, to help him take down Jerry.

SOURCES:
VIDEO: .............. Fright Night 2011 WP - IMAGiNE [NO RAR]
AUDIO: .............. OWN

NOTES:
IMAGiNE bringing you another release..........
Fright Night 2011 WP EDITION.........
ok heres our first go at Apes First we made a script to crop and resize,then made the black true and adjusted some things Now the READNFO is for the hardcoded english subs in yellow when needed and the 3 missing seconds tword the end, you cant miss it Audio is nice LiNE we filtered synced and muxed to our encode 
Enjoy Folks!
Fright Night 2011 TS XViD - IMAGiNE [NO RAR].avi 1.261 GB
IMAG.nfo 13.396 KB
SAMPLE Torrent File Clean-Edited.txt 185 B
Gathering some info...

Register and log in Isohunt and see no captcha anymore!

4000 symbols left
Hash 3DE1F4C446441AEC51C49E187DC59FCC72F2A1E3

Related torrents for "Fright Night 2011 WP - IMAGiNE [NO RAR]"

Torrent search:

2011