Videography - U2 - DVDQ [.vob] - Part 1

Size 1.217 GB   1 seeders     Added 2011-08-23 02:44:57

Stream torrent
Starting‥ You need BitLord! Get it from 1BitLord.com
To download or stream you need BitLord. Visit them at BitLord.com
Part 1 U2 - I Will Follow [Old Grey Whistle Test] [1981].vob U2 - The Unforgettable Fire Collection DVD - 11 O'Clock Tick Tock [Bootleg Version] [1983].vob U2 - The Unforgettable Fire Collection DVD - A Sort Of Homecoming [1984].vob U2 - U218 Videos - New Year's Day [1983].vob U2 - U218 Videos - Sunday Bloody Sunday [Live At Red Rocks] [1983].vob Format info for the videos from "The Unforgettable Fire Collection DVD" Video ID : 224 (0xE0) Format : MPEG Video Format version : Version 2 Format profile : Main@Main Format settings, BVOP : Yes Format settings, Matrix : Custom Bit rate mode : Constant Bit rate : 8 000 Kbps Width : 720 pixels Height : 480 pixels Display aspect ratio : 4:3 Frame rate : 29.970 fps Standard : NTSC Color space : YUV Chroma subsampling : 4:2:0 Bit depth : 8 bits Scan type : Interlaced Scan order : Top Field First Compression mode : Lossy Audio ID : 189 (0xBD)-160 (0xA0) Format : PCM Format settings, Endianness : Big Format settings, Sign : Signed Muxing mode : DVD-Video Bit rate mode : Constant Bit rate : 1 536 Kbps Channel(s) : 2 channels Channel positions : Front: L R Sampling rate : 48.0 KHz Bit depth : 16 bits Format info for the videos from "U218 Videos" Video ID : 224 (0xE0) Format : MPEG Video Format version : Version 2 Format profile : Main@Main Format settings, BVOP : Yes Format settings, Matrix : Custom Bit rate mode : Variable Nominal bit rate : 9 800 Kbps Width : 720 pixels Height : 576 pixels Display aspect ratio : 4:3 Frame rate : 25.000 fps Standard : PAL Color space : YUV Chroma subsampling : 4:2:0 Bit depth : 8 bits Scan type : Interlaced Scan order : Top Field First Compression mode : Lossy Audio ID : 189 (0xBD)-160 (0xA0) Format : PCM Format settings, Endianness : Big Format settings, Sign : Signed Muxing mode : DVD-Video Bit rate mode : Constant Bit rate : 1 536 Kbps Channel(s) : 2 channels Channel positions : Front: L R Sampling rate : 48.0 KHz Bit depth : 16 bits Format info for "I Will Follow [Old Grey Whistle Test] [1981]" Video ID : 224 (0xE0) Format : MPEG Video Format version : Version 2 Format profile : Main@Main Format settings, BVOP : Yes Format settings, Matrix : Custom Format settings, GOP : M=3, N=15 Duration : 2mn 16s Bit rate mode : Constant Bit rate : 4 000 Kbps Width : 720 pixels Height : 576 pixels Display aspect ratio : 4:3 Frame rate : 25.000 fps Standard : PAL Color space : YUV Chroma subsampling : 4:2:0 Bit depth : 8 bits Scan type : Interlaced Scan order : Top Field First Compression mode : Lossy Bits/(Pixel*Frame) : 0.386 Stream size : 64.9 MiB (93%) Audio ID : 189 (0xBD)-128 (0x80) Format : AC-3 Format/Info : Audio Coding 3 Mode extension : CM (complete main) Muxing mode : DVD-Video Duration : 2mn 16s Bit rate mode : Constant Bit rate : 224 Kbps Channel(s) : 2 channels Channel positions : Front: L R Sampling rate : 48.0 KHz Bit depth : 16 bits Compression mode : Lossy Delay relative to video : -80ms Stream size : 3.63 MiB (5%) Multimedia Analysis by Mediainfo http://mediainfo.sourceforge.net Visit http://thepiratebay.org/user/dehou/ for more parts and videographys
U2 - I Will Follow [Old Grey Whistle Test] [1981].vob 73.374 MB
U2 - The Unforgettable Fire Collection DVD - 11 O'Clock Tick Tock [Bootleg Version] [1983].vob 286.321 MB
U2 - The Unforgettable Fire Collection DVD - A Sort Of Homecoming [1984].vob 296.579 MB
Gathering some info...

Register and log in Isohunt and see no captcha anymore!

4000 symbols left
Hash 3E8B4DB8F4F1EFE0BC5054BF9D82E78A17D01982

Related torrents for "Videography - U2 - DVDQ [.vob] - Part 1"

Torrent search:

1984