BBC Proms

BBC Proms (1927)

Music

Full description

BBC Proms 2011_13 Verdis Requiem

Size 3.457 GB   0 seeders     Added 2011-08-23 19:43:16

Stream torrent
Starting‥ You need BitLord! Get it from 1BitLord.com
To download or stream you need BitLord. Visit them at BitLord.com
Note: This torrent contains both a DVD ISO and an MP4 Video of the concert so I suggest you select whichever you prefer.
BBC Proms 2011, Number 13
Recorded on 24 July
Broadcast BBC4 on 21 August
Thanks to GringoLoco & the BBC
Verdi:
Requiem (86 mins)
Marina Poplavskaya: soprano
Mariana Pentcheva: mezzo-soprano
Joseph Calleja: tenor
Ferruccio Furlanetto: bass
BBC Symphony Chorus
BBC National Chorus of Wales
London Philharmonic Choir
BBC Symphony Orchestra
Semyon Bychkov: conductor
Commentary in English
Fixed English subtitles
*************************************************
Format: DVD ISO PAL
Runtime: 1:33
Video
ID : 224 (0xE0)
Format : MPEG Video
Format version : Version 2
Format profile : Main@Main
Format settings, BVOP : Yes
Format settings, Matrix : Default
Bit rate mode : Variable
Bit rate : 3 099 Kbps
Nominal bit rate : 9 544 Kbps
Width : 720 pixels
Height : 576 pixels
Display aspect ratio : 16:9
Frame rate : 25.000 fps
Standard : PAL
Color space : YUV
Chroma subsampling : 4:2:0
Bit depth : 8 bits
Scan type : Interlaced
Scan order : Top Field First
Compression mode : Lossy
Bits/(Pixel*Frame) : 0.299
Audio
ID : 192 (0xC0)
Format : MPEG Audio
Format version : Version 1
Format profile : Layer 2
Bit rate mode : Constant
Bit rate : 256 Kbps
Channel(s) : 2 channels
Sampling rate : 48.0 KHz
Compression mode : Lossy
*************************************************
Format: MP4 468p
Runtime: 1:34
Video
ID : 1
Format : AVC
Format/Info : Advanced Video Codec
Format profile : Main@L3.0
Format settings, CABAC : Yes
Format settings, ReFrames : 4 frames
Codec ID : avc1
Codec ID/Info : Advanced Video Coding
Duration : 1h 34mn
Bit rate mode : Constant
Bit rate : 1 404 Kbps
Width : 832 pixels
Height : 468 pixels
Display aspect ratio : 16:9
Frame rate mode : Variable
Frame rate : 25.000 fps
Minimum frame rate : 2.500 fps
Maximum frame rate : 25.000 fps
Standard : PAL
Color space : YUV
Chroma subsampling : 4:2:0
Bit depth : 8 bits
Scan type : Progressive
Bits/(Pixel*Frame) : 0.144
Stream size : 944 MiB (93%)
Audio
ID : 2
Format : AAC
Format/Info : Advanced Audio Codec
Format profile : HE-AAC / LC
Codec ID : 40
Duration : 1h 34mn
Bit rate mode : Variable
Bit rate : 96.0 Kbps
Channel(s) : 2 channels
Channel positions : Front: L R
Sampling rate : 48.0 KHz / 24.0 KHz
Compression mode : Lossy
Stream size : 63.7 MiB (6%)
 
BBC Proms 2011_13 Verdi's Requiem/BBC Proms 2011_13 Verdi's Requiem.iso 2.397 GB
BBC Proms 2011_13 Verdi's Requiem/BBC Proms 2011_13 Verdi's Requiem.mp4 1.06 GB
BBC Proms 2011_13 Verdi's Requiem/BBC Proms 2011_13 Verdi's Requiem.txt 3.724 KB
Gathering some info...

Register and log in Isohunt and see no captcha anymore!

4000 symbols left
Hash c590938cd20c44bf2de521c7c430d576fd64fc0c

Related torrents for "BBC Proms 2011_13 Verdis Requiem"