imdb
rating

6.6
Drag Me to Hell

Drag Me to Hell (2009)

Horror, Thriller

Full description
quality   cam dvdrip screener x264 hd bd

Drag Me To Hell PT-RG

Size 733.971 MB   0 seeders     Added 2011-08-26 02:23:55

Stream torrent
Starting‥ You need BitLord! Get it from BitLord.com
To download or stream you need BitLord. Visit them at BitLord.com
[IMG]image[/IMG]

[code]http://www.imdb.com/title/tt1127180/[/code]

Storyline

Storyline

Christine Brown is a loans officer at a bank but is worried about her lot in life. She's in competition with a competent colleague for an assistant manager position and isn't too sure about her status with a boyfriend. Worried that her boss will think less of her if she shows weakness, she refuses a time extension on a loan to an old woman, Mrs. Ganush, who now faces foreclosure and the loss of her house. In retaliation, the old woman place a curse on her which, she subsequently learns, will result in her being taken to hell in a few days time. With the help of a psychic, she tries to rid herself of the demon, but faces several hurdles in the attempt. Written by garykmcd   

Directed by
Sam Raimi	 	
 
Writing credits
(WGA)
Sam Raimi	 	(written by) &
Ivan Raimi	 	(written by)

Cast (in credits order) complete, awaiting verification

	Alison Lohman	... 	Christine Brown

	Justin Long	... 	Clay Dalton

	Lorna Raver	... 	Sylvia Ganush

	Dileep Rao	... 	Rham Jas

	David Paymer	... 	Mr. Jacks

	Adriana Barraza	... 	Shaun San Dena

	Chelcie Ross	... 	Leonard Dalton

	Reggie Lee	... 	Stu Rubin

	Molly Cheek	... 	Trudy Dalton

	Bojana Novakovic	... 	Ilenka Ganush

	Kevin Foster	... 	Milos

	Alexis Cruz	... 	Farm Worker

	Ruth Livier	... 	Farm Worker's Wife

	Shiloh Selassie	... 	Farm Worker's Son

	Flor de Maria Chahua	... 	Young Shaun San Dena
	Christopher Young	... 	Pedestrian with Cupcake

	Ricardo Molina	... 	Male Mortgage Customer

	Fernanda Romero	... 	Female Mortgage Customer

	Joanne Baron	... 	Mr. Jacks's Secretary

	Ted Raimi	... 	Doctor

	Ali Dean	... 	Pawn Broker

	Octavia Spencer	... 	Bank Co-Worker

	Meyoung Laman	... 	Bank Co-Worker (as Mia Rai)
	Bill E. Rogers	... 	Security Guard

	Cherie Franklin	... 	Cackling Woman at Death Feast
	Olga Babtchinskaia	... 	Violinist at Death Feast

	Alex Veadov	... 	Man with Ponytail at Death Feast

	Bonnie Aarons	... 	Mother and Daughter at Death Feast
	Emma Raimi	... 	Mother and Daughter at Death Feast
	Michael Peter Bolus	... 	Mourners at Death Feast
	Peter Popp	... 	Mourners at Death Feast

	Scott Spiegel	... 	Mourners at Death Feast
	Bridget Hoffman	... 	Ghost at Seance

	Tom Carey	... 	Old Man in Headlights

	Lia Johnson	... 	Waitress
	Jay Gordon	... 	Family at Diner
	Henry Raimi	... 	Family at Diner
	Lorne Raimi	... 	Family at Diner

	Chloe Dykstra	... 	Young Couple at Diner

	Nick Vlassopoulos	... 	Young Couple at Diner
	John Paxton	... 	Old Couple at Diner

	Irene Roseen	... 	Old Couple at Diner

	Aimee Miles	... 	Saleswoman
	Art Kimbro	... 	Voice of Lamia (voice)
rest of cast listed alphabetically:

	Tony A. Angelo	... 	Bank Guard (uncredited)

	Jennifer Blackwell	... 	19th Century Ghost (uncredited)
	Paul Edney	... 	Bank Customer (uncredited)

	Jack White	... 	Chef / Waiter (uncredited)
	Jennifer Zhang	... 	Family at Diner (uncredited)

Genres:
Comedy | Horrow 

Country:
USA
Language:
English
Release Date:
27 May 2009 (UK)



Format                           : avi
Format profile                   : Base Media / Version 2
Codec ID                         : avi
File size                        : 699 MiB
Duration                         : 1h 39mn
Overall bit rate                 : 987 Kbps


Video
ID                               : 1
Format                           : AVC
Format/Info                      : Advanced Video Codec
Format profile                   : High@L2.1
Format settings, CABAC           : Yes
Format settings, ReFrames        : 4 frames
Codec ID                         : avc1
Codec ID/Info                    : Advanced Video Coding
Duration                         : 1h 29mn
Bit rate mode                    : Variable
Bit rate                         : 822 Kbps
Width                            : 592 pixels
Height                           : 320 pixels
Display aspect ratio             : 1.850
Frame rate mode                  : Variable
Frame rate                       : 23.976 fps
Minimum frame rate               : 23.974 fps
Maximum frame rate               : 48.754 fps
Color space                      : YUV
Chroma subsampling               : 4:2:0
Bit depth                        : 8 bits
Scan type                        : Progressive
Bits/(Pixel*Frame)               : 0.181
Stream size                      : 525 MiB (83%)
Writing library                  : x264 core 112


Audio
ID                               : 2
Format                           : AAC
Format/Info                      : Advanced Audio Codec
Format profile                   : LC
Codec ID                         : 40
Duration                         : 1h 29mn
Bit rate mode                    : Variable
Bit rate                         : 160 Kbps
Maximum bit rate                 : 247 Kbps
Channel(s)                       : 2 channels
Channel positions                : Front: L R
Sampling rate                    : 48.0 KHz
Compression mode                 : Lossy
Stream size                      : 102 MiB (16%)

Screenshots 

[IMG]image[/IMG]

[code]http://fr33dom.h33t.com:3310/announce

http://tracker.openbittorrent.com:80/announce

http://nemesis.1337x.org/announce

http://genesis.1337x.org:1337/announce

http://tracker.publicbt.com:80/announce

http://exodus.1337x.org/announce

http://torrent-download.to:5869/announce

http://tracker2.istole.it:6969/announce

http://tracker2.istole.it:80/announce

http://torrentbay.to:6969/announce

http://tracker.torrentbay.to:6969/announce

http://10.rarbg.com:80/announce

http://t1.pow7.com/announce

http://pow7.com:80/announce

http://tracker.prq.to:80/announce

http://tracker.publicbt.com:80/announce

http://nyaatorrents.info:3277/announce
Hash Code : A83B02F263D4D50C9398929A9CD4BDC4AB5DEAA9[/code]
Drag Me To Hell [Unrated Cut].2009.BRRip.PT-RG.avi 733.968 MB
Drag Me To Hell.nfo 2.859 KB
Gathering some info...

Register and log in Isohunt and see no captcha anymore!

4000 symbols left
Hash A83B02F263D4D50C9398929A9CD4BDC4AB5DEAA9

Related torrents for "Drag Me To Hell PT-RG"

Torrent search:

2009