The Ward 2011 DVDScr XVID AC3 HQ Hive CM8

Size 1.299 GB   0 seeders     Added 2011-08-26 02:53:12

Stream torrent
Starting‚Ä• You need BitLord! Get it from BitLord.com
To download or stream you need BitLord. Visit them at BitLord.com
Thx Hive\r\n\r\n\r\nCM8 Doing It Right The First Time\r\n\r\n\r\n!!Cinemadate July 2011!!\r\n\r\nSource: DVD-Screener\r\n\r\nVideo: 720x304 @bitrate 1600 2pass\r\nAudio: English AC3 2.0 Stereo\r\nSample: yes included\r\n\r\nEncode:\r\n\r\nenjoy the upcoming cinemamovie from july already now. Video was a bit dark and colourless.\r\nfixed that as good as possible.\r\n\r\n\r\nhttp://www.imdb.com/title/tt1369706/\r\n\r\n\r\nGeneral\r\nComplete name : The.Ward.2011.DVDScr.XVID.AC3.HQ.Hive-CM8.avi\r\nFormat : AVI\r\nFormat/Info : Audio Video Interleave\r\nFile size : 1.20 GiB\r\nDuration : 1h 32mn\r\nOverall bit rate : 1 866 Kbps\r\nWriting application : Nandub v1.0rc2\r\nWriting library : Nandub build 1853/release\r\n\r\nVideo\r\nID : 0\r\nFormat : MPEG-4 Visual\r\nFormat profile : Advanced Simple@L5\r\nFormat settings, BVOP : 2\r\nFormat settings, QPel : Yes\r\nFormat settings, GMC : No warppoints\r\nFormat settings, Matrix : Default (H.263)\r\nMuxing mode : Packed bitstream\r\nCodec ID : XVID\r\nCodec ID/Hint : XviD\r\nDuration : 1h 32mn\r\nBit rate : 1 601 Kbps\r\nWidth : 720 pixels\r\nHeight : 304 pixels\r\nDisplay aspect ratio : 2.35:1\r\nFrame rate : 23.976 fps\r\nColor space : YUV\r\nChroma subsampling : 4:2:0\r\nBit depth : 8 bits\r\nScan type : Progressive\r\nCompression mode : Lossy\r\nBits/(Pixel*Frame) : 0.305\r\nStream size : 1.03 GiB (86%)\r\nWriting library : XviD 1.2.1 (UTC 2008-12-04)\r\n\r\nAudio\r\nID : 1\r\nFormat : AC-3\r\nFormat/Info : Audio Coding 3\r\nMode extension : CM (complete main)\r\nCodec ID : 2000\r\nDuration : 1h 32mn\r\nBit rate mode : Constant\r\nBit rate : 256 Kbps\r\nChannel(s) : 2 channels\r\nChannel positions : Front: L R\r\nSampling rate : 48.0 KHz\r\nBit depth : 16 bits\r\nCompression mode : Lossy\r\nStream size : 169 MiB (14%)\r\nAlignment : Split accross interleaves\r\nInterleave, duration : 42 ms (1.00 video frame)\r\nInterleave, preload duration : 500 ms\r\n\r\n\r\n\r\nAmber Heard ... Kristen\r\nLyndsy Fonseca ... Iris\r\nDanielle Panabaker ... Sarah\r\nJared Harris ... Dr. Stringer\r\nMamie Gummer ... Emily\r\n\r\n\r\nA thriller centered on an institutionalized young woman who becomes terrorized by a ghost.\r\n\r\n\r\nCome and join us at DIJ-ENTERTAINMENTS.co.uk for movies music apps and so much more.
sample.avi 8.665 MB
The.Ward.2011.DVDScr.XVID.AC3.HQ.Hive-CM8.avi 1.29 GB
The.Ward.2011.DVDScr.XVID.AC3.HQ.Hive-CM8.nfo 3.987 KB
Gathering some info...

Register and log in Isohunt and see no captcha anymore!

4000 symbols left
Hash C1FE03E4025D4BCAF254D1F0153F54CD667637B6