imdb
rating

6.4
Fright Night

Fright Night (2011)

Comedy, Horror

Full description
quality   dvdrip hd fullhd telesync x264

Fright Night PT-RG

Size 1.544 GB   0 seeders     Added 2011-08-26 18:51:58

Stream torrent
Starting‥ You need BitLord! Get it from 1BitLord.com
To download or stream you need BitLord. Visit them at BitLord.com
[IMG]image[/IMG]

[code]http://www.imdb.com/title/tt1438176/[/code]

Storyline

A remake of the 1985 original, teenager Charley Brewster (Yelchin) guesses that his new neighbor Jerry Dandrige (Farrell) is a vampire responsible for a string of recent deaths. When no one he knows believes him, he enlists Peter Vincent (Tennant), a self proclaimed vampire killer and Las Vegas magician, to help him take down Jerry.   

Directed by
Craig Gillespie	 	
 
Writing credits
(WGA)
Marti Noxon	 	(screenplay)

Tom Holland	 	(story)

Tom Holland	 	(film "Fright Night")

Cast (in credits order)

	Anton Yelchin	... 	Charley Brewster

	Colin Farrell	... 	Jerry

	Toni Collette	... 	Jane Brewster

	David Tennant	... 	Peter Vincent

	Imogen Poots	... 	Amy

	Christopher Mintz-Plasse	... 	Ed

	Dave Franco	... 	Mark

	Reid Ewing	... 	Ben

	Will Denton	... 	Adam

	Sandra Vergara	... 	Ginger

	Emily Montague	... 	Doris

	Chris Sarandon	... 	Jay Dee

	Grace Phipps	... 	Bee

	Chelsea Tavares	... 	Cara

	Lisa Loeb	... 	Victoria

	Brian Huskey	... 	Rick

	Rick A. Ortega Jr.	... 	Cop #2 (as Rick Ortega)

	Charlie B. Brown	... 	Doctor (as Charlie Brown)

	Mike Miller	... 	Store Guy

	Marya Beauvais	... 	Mrs. Grenada

	Rebekah Wiggins	... 	Passing Nurse

	Kent Kirkpatrick	... 	Teacher
	Eb Lottimer	... 	Adam's Dad

	Liezl Carstens	... 	Show Nymph #1
	Arron Shiver	... 	Cop #1
rest of cast listed alphabetically:

	Laura Aidan	... 	Show Nymph #2

	Jerry G. Angelo	... 	Guy on Dance Floor (as Jerry Angelo)

	Phil Arnold	... 	High School Teacher

	Tina Borek	... 	Nurse

	Kevin Christopher Brown	... 	Jerry's House Cop #1
	William H. Burton	... 	Hulking Man
	Dave Courvoisier	... 	Newscaster #2
	Tait Fletcher	... 	Nightclub Security Guy

	Paula Francis	... 	Newscaster #1

	Cliff Gravel	... 	Custodian

	Eriks Alfons Hausmanis	... 	Party Goer
	Bruce Holmes	... 	Pyro Guy

	Lovie Johnson	... 	D.J.

	Bonnie Morgan	... 	Vamp #1

	David T. Quan	... 	Club Dancer w / Hat

	Chris Ranney	... 	Guard

	Ashlee Renz-Hotz	... 	Club Dancer - Flirt
	Ryan Schaefer	... 	Frat Boy
	Alma Sisneros	... 	Show Nymph #3
	Viola Valdez	... 	Librarian
	Michelle Waterson	... 	Vamp #2
	Gilbert Almario	... 	Night Club Dancer (uncredited)

	Fileena Bahris	... 	Club girl (uncredited)

	Vernon Bradley	... 	Club Dancer (uncredited)
	Steph Delgado	... 	Classroom Student (uncredited)
	Joshua Drew	... 	Student (uncredited)

	Kevin Fowlkes	... 	Club Bouncer (uncredited)
	Drew Hollowell	... 	Club Guy (uncredited)

	Bob Kaye	... 	Club Bouncer (uncredited)

	Kelly Ruble	... 	Conventioneer (uncredited)

	Sandi K Shelby	... 	Teacher (uncredited)
	Monika Spruch	... 	Club Model (uncredited)

Genres:
Comedy | Horror 

Country:
USA
Language:
English
Release Date:
27 May 2009 (UK)



General
Complete name                    : E:\Movies\Fright NIght PT-RG\Fright Night 2011 TS XViD -PT-RG.avi
Format                           : AVI
Format/Info                      : Audio Video Interleave
File size                        : 1.44 GiB
Duration                         : 1h 38mn
Overall bit rate                 : 2 096 Kbps
Writing library                  : VirtualDub build 30586/release

Video
ID                               : 0
Format                           : MPEG-4 Visual
Format profile                   : Advanced Simple@L5
Format settings, BVOP            : 2
Format settings, QPel            : No
Format settings, GMC             : No warppoints
Format settings, Matrix          : Default (MPEG)
Muxing mode                      : Packed bitstream
Codec ID                         : XVID
Codec ID/Hint                    : XviD
Duration                         : 1h 38mn
Bit rate                         : 1 956 Kbps
Width                            : 720 pixels
Height                           : 304 pixels
Display aspect ratio             : 2.35:1
Frame rate                       : 29.970 fps
Color space                      : YUV
Chroma subsampling               : 4:2:0
Bit depth                        : 8 bits
Scan type                        : Progressive
Compression mode                 : Lossy
Bits/(Pixel*Frame)               : 0.298
Stream size                      : 1.34 GiB (93%)
Writing library                  : XviD 64

Audio
ID                               : 1
Format                           : MPEG Audio
Format version                   : Version 1
Format profile                   : Layer 3
Mode                             : Joint stereo
Mode extension                   : MS Stereo
Codec ID                         : 55
Codec ID/Hint                    : MP3
Duration                         : 1h 38mn
Bit rate mode                    : Constant
Bit rate                         : 128 Kbps
Channel(s)                       : 2 channels
Sampling rate                    : 44.1 KHz
Compression mode                 : Lossy
Stream size                      : 90.0 MiB (6%)
Alignment                        : Split accross interleaves
Interleave, duration             : 33 ms (1.00 video frame)
Writing library                  : LAME3.98r
Encoding settings                : -m j -V 4 -q 2 -lowpass 17 -b 128


Screenshots 

[IMG]image[/IMG]

[code]http://fr33dom.h33t.com:3310/announce

http://tracker.openbittorrent.com:80/announce

http://nemesis.1337x.org/announce

http://genesis.1337x.org:1337/announce

http://tracker.publicbt.com:80/announce

http://exodus.1337x.org/announce

http://torrent-download.to:5869/announce

http://tracker2.istole.it:6969/announce

http://tracker2.istole.it:80/announce

http://torrentbay.to:6969/announce

http://tracker.torrentbay.to:6969/announce

http://10.rarbg.com:80/announce

http://t1.pow7.com/announce

http://pow7.com:80/announce

http://tracker.prq.to:80/announce

http://tracker.publicbt.com:80/announce

http://nyaatorrents.info:3277/announce
Hash Code : 264BBF33656DC931CCA2D744BFE0973899A76C11[/code]
Fright Night 2011 TS XViD -PT-RG.avi 1.544 GB
FrightNight.nfo 5.622 KB
Gathering some info...

Register and log in Isohunt and see no captcha anymore!

4000 symbols left
Hash 264BBF33656DC931CCA2D744BFE0973899A76C11

Related torrents for "Fright Night PT-RG"

Torrent search:

2011