BBC Proms

BBC Proms (1927)

Music

Full description

BBC Proms 2011_47 Brahms Night with Bernard Haintink and Emanuel

Size 4.069 GB   0 seeders     Added 2011-08-29 21:41:48

Stream torrent
Starting‥ You need BitLord! Get it from BitLord.com
To download or stream you need BitLord. Visit them at BitLord.com
This torrent contains both a DVD ISO and an MP4 Video of the concert so I suggest you select whichever you prefer.
BBC Proms 2011, Number 47
Thanks to GringoLoco & the BBC
Brahms:
Symphony No. 3 in F major (38 mins)
Brahms:
Piano Concerto No. 1 in D minor (45 mins)
Emanuel Ax: piano
Chamber Orchestra of Europe
Bernard Haitink: conductor
**********************************************
Format: DVD ISO PAL 16:9
Runtime: 1:37 (Interval cut)
Video
ID : 224 (0xE0)
Format : MPEG Video
Format version : Version 2
Format profile : Main@Main
Format settings, BVOP : Yes
Format settings, Matrix : Default
Bit rate mode : Variable
Bit rate : 3 426 Kbps
Nominal bit rate : 9 544 Kbps
Width : 720 pixels
Height : 576 pixels
Display aspect ratio : 16:9
Frame rate : 25.000 fps
Standard : PAL
Color space : YUV
Chroma subsampling : 4:2:0
Bit depth : 8 bits
Scan type : Interlaced
Scan order : Top Field First
Compression mode : Lossy
Bits/(Pixel*Frame) : 0.330
Audio
ID : 192 (0xC0)
Format : MPEG Audio
Format version : Version 1
Format profile : Layer 2
Bit rate mode : Constant
Bit rate : 256 Kbps
Channel(s) : 2 channels
Sampling rate : 48.0 KHz
Compression mode : Lossy
***********************************************
Format: MP4 468p
Runtime: 1:56
Video
ID : 1
Format : AVC
Format/Info : Advanced Video Codec
Format profile : Main@L3.0
Format settings, CABAC : Yes
Format settings, ReFrames : 4 frames
Codec ID : avc1
Codec ID/Info : Advanced Video Coding
Duration : 1h 56mn
Bit rate mode : Constant
Bit rate : 1 404 Kbps
Width : 832 pixels
Height : 468 pixels
Display aspect ratio : 16:9
Frame rate mode : Constant
Frame rate : 25.000 fps
Standard : PAL
Color space : YUV
Chroma subsampling : 4:2:0
Bit depth : 8 bits
Scan type : Progressive
Bits/(Pixel*Frame) : 0.144
Stream size : 1.14 GiB (93%)
Audio
ID : 2
Format : AAC
Format/Info : Advanced Audio Codec
Format profile : HE-AAC / LC
Codec ID : 40
Duration : 1h 56mn
Bit rate mode : Variable
Bit rate : 96.0 Kbps
Channel(s) : 2 channels
Channel positions : Front: L R
Sampling rate : 48.0 KHz / 24.0 KHz
Compression mode : Lossy
Stream size : 78.8 MiB (6%) 
BBC Proms 2011_47 Brahms Night with Bernard Haintink and Emanuel Ax/BBC Proms 2011_47 Brahms Night.iso 2.758 GB
BBC Proms 2011_47 Brahms Night with Bernard Haintink and Emanuel Ax/BBC Proms 2011_47 Brahms Night.mp4 1.311 GB
BBC Proms 2011_47 Brahms Night with Bernard Haintink and Emanuel Ax/BBC Proms 2011_47 Brahms Night.txt 3.455 KB
Gathering some info...

Register and log in Isohunt and see no captcha anymore!

4000 symbols left
Hash 65cd3a23f53a4930b5f7ff858a6063b883399161

Related torrents for "BBC Proms 2011_47 Brahms Night with Bernard Haintink and Emanuel"