Return to the Planet of the Apes

Return to the Planet of the Apes (1975)

Animation General, Children

Full description

Rise Of The Planet Of The Apes PT-RG

Size 881.926 MB   0 seeders     Added 2011-08-29 22:00:03

Stream torrent
Starting‥ You need BitLord! Get it from BitLord.com
To download or stream you need BitLord. Visit them at BitLord.com
[IMG]image[/IMG]

[code]http://www.imdb.com/title/tt1318514/[/code]


Storyline

During experiments to find a cure for Alzheimer's disease, a genetically-enhanced chimpanzee uses its greater intelligence to lead other apes to freedom.   

Directed by
Rupert Wyatt	 	
 
Writing credits
Rick Jaffa	 	(written by) &
Amanda Silver	 	(written by)

Pierre Boulle	 	(suggested by novel "La planète des singes")

Cast (in credits order)

	James Franco	... 	Will Rodman

	Freida Pinto	... 	Caroline Aranha

	John Lithgow	... 	Charles Rodman

	Brian Cox	... 	John Landon

	Tom Felton	... 	Dodge Landon

	David Oyelowo	... 	Steven Jacobs

	Tyler Labine	... 	Robert Franklin

	Jamie Harris	... 	Rodney

	David Hewlett	... 	Hunsiker

	Ty Olsson	... 	Chief John Hamil

	Madison Bell	... 	Alice Hunsiker
	Makena Joy	... 	Alice Hunsiker (Teen)
	Kevin O'Grady	... 	Animal Control Officer #1

	Sean Tyson	... 	Animal Control Officer #2
	Jack Kuris	... 	Boy in Muir Woods

	Tammy Hui	... 	Bridge Driver

	Rufus Dorsey	... 	CHP #2
	Kyle Riefsnyder	... 	CHP #1
	Anthony McRae	... 	CHP #3

	Jeb Beach	... 	Dad in Muir Woods

	Jesse Reid	... 	Donnie Thompson
	BJ Harrison	... 	Dottie

	Leah Gibson	... 	Party Girl #1

	Tracy Spiridakos	... 	Party Girl #2

	Ivan Wanis-Ruiz	... 	Handler @ Lab #1
	Trevor Carroll	... 	Handler @ Lab #2

	Chelah Horsdal	... 	Irena
	Timothy Webber	... 	Janitor - Stan Timko

	James Pizzinato	... 	Lab Tech. #1
	Robin Nielsen	... 	Lab Tech. #2

	Monica Mustelier	... 	Lab Tech. #3

	Syn Narula	... 	Lab Tech. #4

	Mattie Hawkinson	... 	Linda
	Ryan Booth	... 	South Side Commander

	Gordon Douglas Myren	... 	Local Guy

	Elizabeth Weinstein	... 	Mom in Muir Woods
	Meredith Grantier	... 	New Aide
	Javier Caballero Cano	... 	Newspaper Dad
	Peter Bundic	... 	Newspaper Boy #1
	Dylan Nouri	... 	Newspaper Boy #2
	Oona Service	... 	Playground Girl
	Camille Atebe	... 	Playground Mom
	Derek Morrison	... 	Security Guard #1

	Dean Redman	... 	Security Guard #2
	Hector Johnson	... 	Security Guard #3

	David Richmond-Peck	... 	Board Member #1

	Adrian Hough	... 	Board Member #2

	Evans Johnson	... 	Board Member #2

	Joey Roche	... 	Todd Hunisker

	Sean Connor Roche	... 	Teen Todd Hunisker (as Sean Roche)

	Qayam Devji	... 	Todd's Buddy

	Kis Yurij	... 	Worker
	Riel Hahn	... 	Zoo Guide

	Sonja Bennett	... 	Mother on Sidewalk

	Michael Kopsa	... 	Jerk Driver
	Steve Lawlor	... 	SFPD #1
	Chris Shields	... 	SFPD #2

	Sandy Robson	... 	SFPD #4

	Luc Roderique	... 	SWAT

	Mike Dopud	... 	Northside Officer

	Mark Henriques	... 	Driver
	Stacey Schmidt	... 	Jogger

	Matteo Mazziotti	... 	Child in Car
	Willy Miles	... 	Guy with Newspaper
	Fred North	... 	Camera Ship Pilot
	Allen Martin	... 	KPIX News Anchor
	Juliette Goodrich	... 	KPIX News Anchor

	Andy Serkis	... 	Caesar

	Karin Konoval	... 	Maurice

	Terry Notary	... 	Rocket / Bright Eyes
	Richard Ridings	... 	Buck

	Christopher Gordon	... 	Koba (as Chris Gordon)
	Devyn Dalton	... 	Cornelia

	Jay Caputo	... 	Alpha

	Richard Darwin	... 	Baby Caesar (Puppeteer)
rest of cast listed alphabetically:
	Hal Myshrall	... 	Suit (uncredited)

	Panou	... 	SFPD #3 (uncredited)

	Lauren Watson	... 	Scared Girl in Stairway (uncredited)

	Linda Watters	... 	Primate Lab Technician (uncredited)
Genres:
Action | Drama 

Country:
UK
Language:
English
Release Date:
11 August 2011 (UK)



General
Complete name                    : E:\Movies\Rise Of The Apes PT-RG\rise of the apes PT-RG.mp4
Format                           : MPEG-4
Format profile                   : Base Media / Version 2
Codec ID                         : mp42
File size                        : 841 MiB
Duration                         : 1h 37mn
Overall bit rate                 : 1 200 Kbps
Encoded date                     : UTC 2011-08-06 18:42:24
Tagged date                      : UTC 2011-08-06 19:55:39
Writing application              : HandBrake 0.9.5 2011010300
Comment                          : http://www.planet-torrents.co.uk

Video
ID                               : 1
Format                           : AVC
Format/Info                      : Advanced Video Codec
Format profile                   : High@L3.0
Format settings, CABAC           : Yes
Format settings, ReFrames        : 4 frames
Codec ID                         : avc1
Codec ID/Info                    : Advanced Video Coding
Duration                         : 1h 37mn
Bit rate mode                    : Variable
Bit rate                         : 1 036 Kbps
Width                            : 720 pixels
Height                           : 320 pixels
Display aspect ratio             : 2.25:1
Frame rate mode                  : Variable
Frame rate                       : 25.000 fps
Minimum frame rate               : 20.000 fps
Maximum frame rate               : 50.000 fps
Color space                      : YUV
Chroma subsampling               : 4:2:0
Bit depth                        : 8 bits
Scan type                        : Progressive
Bits/(Pixel*Frame)               : 0.180
Stream size                      : 726 MiB (86%)
Writing library                  : x264 core 112
Encoding settings                : cabac=1 / ref=3 / deblock=1:0:0 / analyse=0x3:0x113 / me=hex / subme=7 / psy=1 / psy_rd=1.00:0.00 / mixed_ref=1 / me_range=16 / chroma_me=1 / trellis=1 / 8x8dct=1 / cqm=0 / deadzone=21,11 / fast_pskip=1 / chroma_qp_offset=-2 / threads=4 / sliced_threads=0 / nr=0 / decimate=1 / interlaced=0 / constrained_intra=0 / bframes=3 / b_pyramid=2 / b_adapt=2 / b_bias=0 / direct=1 / weightb=1 / open_gop=0 / weightp=2 / keyint=250 / keyint_min=24 / scenecut=40 / intra_refresh=0 / rc_lookahead=50 / rc=2pass / mbtree=1 / bitrate=1036 / ratetol=1.0 / qcomp=0.60 / qpmin=3 / qpmax=51 / qpstep=4 / cplxblur=20.0 / qblur=0.5 / ip_ratio=1.40 / aq=1:1.00
Encoded date                     : UTC 2011-08-06 18:42:24
Tagged date                      : UTC 2011-08-06 19:55:39
Color primaries                  : BT.601-6 525, BT.1358 525, BT.1700 NTSC, SMPTE 170M
Transfer characteristics         : BT.709-5, BT.1361
Matrix coefficients              : BT.601-6 525, BT.1358 525, BT.1700 NTSC, SMPTE 170M

Audio
ID                               : 2
Format                           : AAC
Format/Info                      : Advanced Audio Codec
Format profile                   : SSR
Codec ID                         : 40
Duration                         : 1h 37mn
Bit rate mode                    : Variable
Bit rate                         : 160 Kbps
Maximum bit rate                 : 243 Kbps
Channel(s)                       :  channel0
Sampling rate                    : 96.0 KHz
Compression mode                 : Lossy
Stream size                      : 112 MiB (13%)
Encoded date                     : UTC 2011-08-06 18:42:24
Tagged date                      : UTC 2011-08-06 19:55:39




Screenshots 

[IMG]image[/IMG]

[code]http://fr33dom.h33t.com:3310/announce

http://tracker.openbittorrent.com:80/announce

http://nemesis.1337x.org/announce

http://genesis.1337x.org:1337/announce

http://tracker.publicbt.com:80/announce

http://exodus.1337x.org/announce

http://torrent-download.to:5869/announce

http://tracker2.istole.it:6969/announce

http://tracker2.istole.it:80/announce

http://torrentbay.to:6969/announce

http://tracker.torrentbay.to:6969/announce

http://10.rarbg.com:80/announce

http://t1.pow7.com/announce

http://pow7.com:80/announce

http://tracker.prq.to:80/announce

http://tracker.publicbt.com:80/announce

http://nyaatorrents.info:3277/announce
Hash Code : 047B92D1FC894EC221E9C6B013A6E432CD01962A[/code]

rise of the apes PT-RG.mp4 881.923 MB
Rise Of The Planet Of The Apes.nfo 2.741 KB
Gathering some info...

Register and log in Isohunt and see no captcha anymore!

4000 symbols left
Hash 047B92D1FC894EC221E9C6B013A6E432CD01962A

Related torrents for "Rise Of The Planet Of The Apes PT-RG"