imdb
rating

7.0
Thor

Thor (2011)

Action, Adventure, Fantasy

Full description
quality   dvdrip screener dvd telesync bd

Thor.[2011].BRRip.XviD.-.SaM[tibitto.org]

Size 734.023 MB   0 seeders     Added 2011-08-30 14:02:21

Stream torrent
Starting‥ You need BitLord! Get it from BitLord.com
To download or stream you need BitLord. Visit them at BitLord.com
[img]image[/img]
[font=Lucida Console][size=2][color=#FF0000]
      Format : AVI
      Format/Info : Audio Video Interleave
      Format/Info : Audio Video Interleave
      File size : 700 MiB
      Duration : 1h 54mn
      Overall bit rate : 852 Kbps
      Writing library : VirtualDub build 32842/release
      Copyright : SaM


[/color][/size][/font]
[img]image[/img]
[font=Lucida Console][size=2][color=#FF0000]
      ID : 0
      Format : MPEG-4 Visual
      Format profile : AdvancedSimple@L5
      Format settings, BVOP : Yes
      Format settings, QPel : No
      Format settings, GMC : No warppoints
      Format settings, Matrix : Default (MPEG)
      Muxing mode : Packed bitstream
      Codec ID : XVID
      Codec ID/Hint : XviD
      Duration : 1h 54mn
      Bit rate : 731 Kbps
      Width : 624 pixels
      Height : 272 pixels
      Display aspect ratio : 2.25:1
      Frame rate : 23.976 fps
      Resolution : 24 bits
      Colorimetry : 4:2:0
      Scan type : Progressive
      Bits/(Pixel*Frame) : 0.180
      Stream size : 600 MiB (86%)
      Writing library : XviD 62

[/color][/size][/font]
[img]image[/img]
[font=Lucida Console][size=2][color=#FF0000]
      ID : 1
      Format : MPEG Audio
      Format version : Version 1
      Format profile : Layer 3
      Codec ID : 55
      Codec ID/Hint : MP3
      Duration : 1h 54mn
      Bit rate mode : Constant
      Bit rate : 112 Kbps
      Channel(s) : 2 channels
      Sampling rate : 48.0 KHz
      Resolution : 16 bits
      Stream size : 92.0 MiB (13%)
      Alignment : Split accross interleaves
      Interleave, duration : 42 ms (1.00 video frame)
      Interleave, preload duration : 500 ms
      Writing library : LAME3.98r
      Encoding settings : -m j -V 4 -q 3 -lowpass 15.6 -b 112[/color][/size][/font]
Thor[2011]BRRip XviD-SaM.srt 64.009 KB
Thor[2011]BRRip XviD-SaM.avi 733.959 MB
Gathering some info...

Register and log in Isohunt and see no captcha anymore!

4000 symbols left
Hash CE86E0263395202BB2879B7DEBC2A3C05CAB923D

Related torrents for "Thor.[2011].BRRip.XviD.-.SaM[tibitto.org]"

Torrent search:

bd 2011