Paranoia

Paranoia (2016)

Thriller, Horror

Full description
quality   dvdrip x264 web-rip

Paranoia 1967 Adriaan Ditvoorst

Size 734.048 MB   0 seeders     Added 2011-09-01 02:53:15

Stream torrent
Starting‥ You need BitLord! Get it from BitLord.com
To download or stream you need BitLord. Visit them at BitLord.com
Main character Arnold Cleever gets increasingly paranoid in post war Amsterdam. His cranky landlord tries to kick him out of his room as most of his neighbors and friends vacate the place, leaving Arnold more and more isolated.\r\n\r\nHis innocent girlfriend tries her best to lift his mood but in private Arnold's fantasies get more and more morbid. He plays around with a gun (in a pre Taxidriver way) and adds countless locks to his door. He suffers from hallucinations and starts to think he is a former SS member, hunted down by the police. Gradually we learn Arnold suffered a trauma at the beginning of WW2. But as this is a reworking of a short story by the Dutch mysantropic author Willem Frederik Hermans, the stories we get to hear about the war are unremarkable and painfully unheroic.\r\n\r\nAll this is dramatized in long shots making great use of Amsterdam as location and the actor's youthfulness. Jan de Bond's camera work is stunning and the strumming on a guitar and the moody organ that serve as soundtrack are very effective. In my opinion this is an important film and it exhibits a feel for film and story, combined with a very self assured style, seldomly seen before and after in Dutch cinema. ~worldcinema.com\r\n\r\nDirector:\r\nAdriaan Ditvoorst\r\n\r\nWriters:\r\nAdriaan Ditvoorst, Willem Frederik Hermans (novel)\r\n\r\nStars:\r\nKees van Eyck, Pamela Koevoets and Rudolf Lucieer\r\n\r\nFormat                           : AVI\r\nFormat/Info                      : Audio Video Interleave\r\nFile size                        : 700 MiB\r\nDuration                         : 1h 37mn\r\nOverall bit rate                 : 1 007 Kbps\r\nWriting application              : VirtualDubMod 1.5.4.1 (build 2178/release)\r\nWriting library                  : VirtualDubMod build 2178/release\r\n\r\nVideo\r\nID                               : 0\r\nFormat                           : MPEG-4 Visual\r\nFormat profile                   : Advanced Simple@L5\r\nFormat settings, BVOP            : Yes\r\nFormat settings, QPel            : No\r\nFormat settings, GMC             : No warppoints\r\nFormat settings, Matrix          : Custom\r\nCodec ID                         : XVID\r\nCodec ID/Hint                    : XviD\r\nDuration                         : 1h 37mn\r\nBit rate                         : 889 Kbps\r\nWidth                            : 528 pixels\r\nHeight                           : 400 pixels\r\nDisplay aspect ratio             : 4:3\r\nFrame rate                       : 25.000 fps\r\nColor space                      : YUV\r\nChroma subsampling               : 4:2:0\r\nBit depth                        : 8 bits\r\nScan type                        : Progressive\r\nBits/(Pixel*Frame)               : 0.168\r\nStream size                      : 618 MiB (88%)\r\nWriting library                  : XviD 1.2.0.dev47 (UTC 2006-11-01)\r\n\r\nAudio\r\nID                               : 1\r\nFormat                           : MPEG Audio\r\nFormat version                   : Version 1\r\nFormat profile                   : Layer 3\r\nMode                             : Joint stereo\r\nCodec ID                         : 55\r\nCodec ID/Hint                    : MP3\r\nDuration                         : 1h 37mn\r\nBit rate mode                    : Variable\r\nBit rate                         : 105 Kbps\r\nNominal bit rate                 : 128 Kbps\r\nChannel(s)                       : 2 channels\r\nSampling rate                    : 48.0 KHz\r\nStream size                      : 72.9 MiB (10%)\r\nAlignment                        : Aligned on interleaves\r\nInterleave, duration             : 24 ms (0.60 video frame)\r\nInterleave, preload duration     : 386 ms\r\nWriting library                  : LAME3.97 \r\nEncoding settings                : -m j -V 4 -q 2 -lowpass 17 --abr 128
Paranoia.avi 733.997 MB
Paranoia.srt 25.062 KB
Paranoia_ptbr.srt 25.403 KB
Gathering some info...

Register and log in Isohunt and see no captcha anymore!

4000 symbols left
Hash 4725DAABF0872E994D0532BF9ED827850298C401

Related torrents for "Paranoia 1967 Adriaan Ditvoorst"

Torrent search:

1967