MANGATHA [2011] Scam Print First On Net [www RockersZone Com]

Size 222.536 MB   0 seeders     Added 2011-09-01 02:55:55

Stream torrent
Starting‥ You need BitLord! Get it from 1BitLord.com
To download or stream you need BitLord. Visit them at BitLord.com
[CENTER][B][COLOR=Red]MANGATHA [2011] Scam Print First On Net [[URL=\"http://www.RockersZone.Com]\"]www.RockersZone.Com][/URL][/COLOR][/B]\r\n\r\n[CODE] [B]Format                           : AVI\r\nFormat/Info                      : Audio Video Interleave\r\nFile size                        : 14.0 MiB\r\nDuration                         : 8mn 6s\r\nOverall bit rate                 : 241 Kbps\r\n\r\n\r\nVideo\r\nID                               : 0\r\nFormat                           : MPEG-4 Visual\r\nFormat profile                   : Advanced Simple@L5\r\nFormat settings, BVOP            : 2\r\nFormat settings, QPel            : No\r\nFormat settings, GMC             : No warppoints\r\nFormat settings, Matrix          : Default (H.263)\r\nMuxing mode                      : Packed bitstream\r\nCodec ID                         : XVID\r\nCodec ID/Hint                    : XviD\r\nDuration                         : 8mn 6s\r\nBit rate                         : 103 Kbps\r\nWidth                            : 500 pixels\r\nHeight                           : 250 pixels\r\nDisplay aspect ratio             : 2.000\r\nFrame rate                       : 23.976 fps\r\nColor space                      : YUV\r\nChroma subsampling               : 4:2:0\r\nBit depth                        : 8 bits\r\nScan type                        : Progressive\r\nCompression mode                 : Lossy\r\nBits/(Pixel*Frame)               : 0.034\r\nStream size                      : 5.97 MiB (43%)\r\nWriting library                  : XviD 63\r\n\r\nAudio\r\nID                               : 1\r\nFormat                           : MPEG Audio\r\nFormat version                   : Version 1\r\nFormat profile                   : Layer 3\r\nMode                             : Joint stereo\r\nMode extension                   : MS Stereo\r\nCodec ID                         : 55\r\nCodec ID/Hint                    : MP3\r\nDuration                         : 8mn 6s\r\nBit rate mode                    : Constant\r\nBit rate                         : 128 Kbps\r\nChannel(s)                       : 2 channels\r\nSampling rate                    : 44.1 KHz\r\nCompression mode                 : Lossy\r\nStream size                      : 7.43 MiB (53%)\r\nAlignment                        : Split accross interleaves\r\nInterleave, duration             : 42 ms (1.00 video frame)\r\nInterleave, preload duration     : 500 ms\r\nWriting library                  : LAME3.98.2[/B] [/CODE][URL=\"http://imageshack.us/photo/my-images/856/vlcsnap2011090112h42m09.png/\"][IMG]image[/IMG][/URL]\r\n[URL=\"http://imageshack.us/photo/my-images/831/vlcsnap2011090113h37m25.png/\"][IMG]image[/IMG][/URL]\r\n[URL=\"http://imageshack.us/photo/my-images/853/vlcsnap2011090113h08m59.png/\"][IMG]image[/IMG][/URL]\r\n[URL=\"http://imageshack.us/photo/my-images/12/vlcsnap2011090113h37m59.png/\"][IMG]image[/IMG][/URL]\r\n\r\n\r\n[B][COLOR=Red]Source:-GOD[/COLOR][/B][/CENTER]\r\n\r\nInfo:http://www.rockerszone.com/showthread.php?t=33099
mankatha Part 1.avi 52.005 MB
mankatha Part 2.avi 14.633 MB
mankatha Part 3.avi 11.856 MB
Gathering some info...

Register and log in Isohunt and see no captcha anymore!

4000 symbols left
Hash C937482032DBBA666E0D3E9F05410DE2FF19BB0C