Magma - Ëmëhntëhtt-Ré [Eac Flac Cue-TNTVillage]

Size 353.962 MB   0 seeders     Added 2011-09-02 16:28:10

Stream torrent
Starting‥ You need BitLord! Get it from BitLord.com
To download or stream you need BitLord. Visit them at BitLord.com
.: Original Release:.
http://www.tntvillage.scambioetico.org/index.php?showtopic=263587

[::Cover::]

[img]image[/img]

[ :: Info Album :: ]

Artist: Magma
Title: Ëmëhntëhtt-Ré 
Genre: Zeuhl 
Year: 2009 

[ :: Info :: ]
YEAR: 2009 

[ :: Tracklist:: ]
1. 	Ëmëhntëhtt-Ré I 		[6:54]
2. 	Ëmëhntëhtt-Ré II 		[22:24]
3. 	Ëmëhntëhtt-Ré III 		[13:07]
4. 	Ëmëhntëhtt-Ré IV 		[3:54]
5. 	Funëhrarïum Kanht 		[4:13]
6. 	Sêhë 		            [0:26]

[ :: Info Cd2:: ]

YEAR: 1976 ID3G: 92

[ :: Tracklist :: ]
1. 	La Mela di Odessa 		[17:57]
2. 	Gioia e Rivoluzione 		[10:50]
3. 	Scum 		[7:34]
4. 	Giro, Giro Tondo 		[8:03]
5. 	L'Internazionale 		[5:01]
6. 	Boom Boom 		[6:49]
7. 	Improvvisazione 		[13:50]


[::Technical data Cd1::]

Encoder: EAC 1.02 b2 (secure mode)
Codec: Flac 1.2.1
Profile: 6

[QUOTE]
Exact Audio Copy V1.0 beta 2 from 29. April 2011

EAC extraction logfile from 1. September 2011, 20:10

Magma / Ëmëhntëhtt-Ré

Used drive  : PIONEER DVD-RW  DVR-108   Adapter: 1  ID: 0

Read mode               : Secure
Utilize accurate stream : Yes
Defeat audio cache      : Yes
Make use of C2 pointers : No

Read offset correction                      : 48
Overread into Lead-In and Lead-Out          : No
Fill up missing offset samples with silence : Yes
Delete leading and trailing silent blocks   : No
Null samples used in CRC calculations       : Yes
Used interface                              : Native Win32 interface for Win NT & 2000
Gap handling                                : Appended to previous track

Used output format              : User Defined Encoder
Selected bitrate                : 768 kBit/s
Quality                         : High
Add ID3 tag                     : No
Command line compressor         : C:\NoUAC\Exact Audio Copy\FLAC\FLAC.EXE
Additional command line options : -6 -V -T "ARTIST=%artist%" -T "TITLE=%title%" -T "ALBUM=%albumtitle%" -T "DATE=%year%" 
-T "TRACKNUMBER=%tracknr%" -T "GENRE=%genre%" 
-T "COMMENT=EAC1.0b2 Secure Mode, Test & Copy, AccurateRip, FLAC 1.2.1 -6 (by Paky)" -T "D


TOC of the extracted CD

     Track |   Start  |  Length  | Start sector | End sector 
    ---------------------------------------------------------
        1  |  0:00.00 |  6:54.25 |         0    |    31074   
        2  |  6:54.25 | 22:24.20 |     31075    |   131894   
        3  | 29:18.45 | 13:07.61 |    131895    |   190980   
        4  | 42:26.31 |  3:54.71 |    190981    |   208601   
        5  | 46:21.27 |  4:13.62 |    208602    |   227638   
        6  | 50:35.14 |  0:25.66 |    227639    |   229579   


Track  1

     Filename C:\Users\Dillinger\Desktop\Magma (2009) - Ëmëhntëhtt-Ré\01 - Ëmëhntëhtt-Ré I.wav

     Pre-gap length  0:00:02.00

     Peak level 100.0 %
     Extraction speed 4.6 X
     Track quality 99.9 %
     Test CRC 27BAB854
     Copy CRC 27BAB854
     Accurately ripped (confidence 14)  [3420999C]  (AR v1)
     Copy OK

Track  2

     Filename C:\Users\Dillinger\Desktop\Magma (2009) - Ëmëhntëhtt-Ré\02 - Ëmëhntëhtt-Ré II.wav

     Peak level 100.0 %
     Extraction speed 6.7 X
     Track quality 99.9 %
     Test CRC 596DB0CE
     Copy CRC 596DB0CE
     Accurately ripped (confidence 14)  [8A8A6348]  (AR v1)
     Copy OK

Track  3

     Filename C:\Users\Dillinger\Desktop\Magma (2009) - Ëmëhntëhtt-Ré\03 - Ëmëhntëhtt-Ré III.wav

     Peak level 100.0 %
     Extraction speed 7.9 X
     Track quality 99.9 %
     Test CRC 26BE0D62
     Copy CRC 26BE0D62
     Accurately ripped (confidence 14)  [B45A9980]  (AR v1)
     Copy OK

Track  4

     Filename C:\Users\Dillinger\Desktop\Magma (2009) - Ëmëhntëhtt-Ré\04 - Ëmëhntëhtt-Ré IV.wav

     Peak level 100.0 %
     Extraction speed 7.9 X
     Track quality 100.0 %
     Test CRC 728A2913
     Copy CRC 728A2913
     Accurately ripped (confidence 14)  [71A1F55E]  (AR v1)
     Copy OK

Track  5

     Filename C:\Users\Dillinger\Desktop\Magma (2009) - Ëmëhntëhtt-Ré\05 - Funëhrarïum Kanht.wav

     Peak level 100.0 %
     Extraction speed 8.3 X
     Track quality 100.0 %
     Test CRC F30CB784
     Copy CRC F30CB784
     Accurately ripped (confidence 14)  [759F1E2A]  (AR v1)
     Copy OK

Track  6

     Filename C:\Users\Dillinger\Desktop\Magma (2009) - Ëmëhntëhtt-Ré\06 - Sêhë.wav

     Peak level 100.0 %
     Extraction speed 2.5 X
     Track quality 99.5 %
     Test CRC 825475D5
     Copy CRC 825475D5
     Accurately ripped (confidence 14)  [2D5E9166]  (AR v1)
     Copy OK


All tracks accurately ripped

No errors occurred

End of status report

==== Log checksum 9A1EF116EE7DDD48DBAAA7419117B754DCADB635FB63FE74B480BD7E1343E119 ====
[/QUOTE]
Magma (2009) - Ëmëhntëhtt-Ré/01 - Ëmëhntëhtt-Ré I.flac 40.394 MB
Magma (2009) - Ëmëhntëhtt-Ré/02 - Ëmëhntëhtt-Ré II.flac 163.792 MB
Magma (2009) - Ëmëhntëhtt-Ré/03 - Ëmëhntëhtt-Ré III.flac 98.175 MB
Gathering some info...

Register and log in Isohunt and see no captcha anymore!

4000 symbols left
Hash 3c6d0bb17136988a56541b6325d10a82091ce6a1