Monte

Monte (2016)

Drama

Full description
quality   bd dvdrip x264 hd fullhd

Monte.Christo.Full.DVD.1973

Size 5.869 GB   15 seeders     Added 2011-09-03 02:55:19

Stream torrent
Starting‥ You need BitLord! Get it from 1BitLord.com
To download or stream you need BitLord. Visit them at BitLord.com
Format : MPEG-PS
File size : 1 024 MiB
Overall bit rate : 5 028 Kbps
Video
ID : 224 (0xE0)
Format : MPEG Video
Format version : Version 2
Format profile : Main@Main
Format settings, BVOP : Yes
Format settings, Matrix : Default
Format_Settings_GOP : M=3, N=12
Bit rate mode : Variable
Bit rate : 4 605 Kbps
Nominal bit rate : 8 000 Kbps
Width : 720 pixels
Height : 576 pixels
Display aspect ratio : 16:9
Frame rate : 25.000 fps
Standard : PAL
Resolution : 8 bits
Colorimetry : 4:2:0
Scan type : Interlaced
Scan order : Bottom Field First
Bits/(Pixel*Frame) : 0.444
Stream size : 938 MiB (92%)
Audio
ID : 192 (0xC0)
Format : MPEG Audio
Format version : Version 1
Format profile : Layer 2
Duration : 28mn 27s
Bit rate mode : Constant
Bit rate : 224 Kbps
Channel(s) : 2 channels
Sampling rate : 48.0 KHz
Stream size : 45.6 MiB (4%)
 
The.Count.of.Monte.Cristo.2002.720p.BluRay.X264-AMIABLE.mkv 5.869 GB
the.count.of.monte.cristo.2002.720p.bluray.x264-amiable.nfo 1.71 KB
Gathering some info...

Register and log in Isohunt and see no captcha anymore!

4000 symbols left
Hash 729267E5BF9BA6232CDB200E2E3FDE670A398FDA

Related torrents for "Monte.Christo.Full.DVD.1973"

Torrent search:

1973