Avenger

Avenger (2003)

Anime, Adventure, Fantasy, Sci-Fi

Full description

Captain America The First Avenger 2011 PPVRIP IFLIX

Size 1.534 GB   0 seeders     Added 2011-09-03 07:16:07

Stream torrent
Starting‥ You need BitLord! Get it from BitLord.com
To download or stream you need BitLord. Visit them at BitLord.com
Captain America The First Avenger 2011 PPVRIP IFLIX
http://www.imdb.com/title/tt0458339/

[IMG]image[/IMG]
[IMG]image[/IMG]
[IMG]image[/IMG]
[IMG]image[/IMG]
[embed=youtube]http://www.youtube.com/watch?v=jX-dpQAginE[/embed]

Language                         : English
Format                           : AVI
Format/Info                      : Audio Video Interleave
File size                        : 1.42 GiB
Duration                         : 2h 4mn
Overall bit rate                 : 1 640 Kbps

Video
ID                               : 0
Format                           : MPEG-4 Visual
Format settings, BVOP            : Yes
Format settings, QPel            : No
Format settings, GMC             : No warppoints
Format settings, Matrix          : Default (H.263)
Codec ID                         : DX50
Codec ID/Hint                    : DivX 5
Duration                         : 2h 4mn
Bit rate                         : 1 500 Kbps
Width                            : 640 pixels
Height                           : 480 pixels
Display aspect ratio             : 4:3
Frame rate                       : 29.970 fps
Resolution                       : 24 bits
Colorimetry                      : 4:2:0
Scan type                        : Progressive
Bits/(Pixel*Frame)               : 0.163
Stream size                      : 1.30 GiB (91%)
Writing library                  : DivX 2151n

Audio
ID                               : 1
Format                           : MPEG Audio
Format version                   : Version 1
Format profile                   : Layer 3
Codec ID                         : 55
Codec ID/Hint                    : MP3
Duration                         : 2h 4mn
Bit rate mode                    : Constant
Bit rate                         : 128 Kbps
Channel(s)                       : 2 channels
Sampling rate                    : 48.0 KHz
Resolution                       : 16 bits
Stream size                      : 114 MiB (8%)
Alignment                        : Aligned on interleaves
Interleave, duration             : 33 ms (1.00 video frame)

Release notes...

Another quality release from IFLIX
More to come very soon!

Video source: Ours
Audio source: Ours

Greetings to all other groups out there. You all do awesome work and we greatly appreciate it.
IFLIX :-)
Captain America The First Avenger 2011 PPVRIP IFLIX www.IWANNADOWNLOAD.com.avi 1.527 GB
Sample.avi 7.137 MB
Captain America The First Avenger 2011 PPVRIP IFLIX www.IWANNADOWNLOAD.com INFO.txt 2.601 KB
Gathering some info...

Register and log in Isohunt and see no captcha anymore!

4000 symbols left
Hash C7B403A778C224DE28F973E14BF77B9391DD730C

Related torrents for "Captain America The First Avenger 2011 PPVRIP IFLIX"

Torrent search:

ppvr 2011