imdb
rating

8.6
Futurama

Futurama (1999)

Adult Cartoons, Comedy, Sci-Fi

Full description

Futurama S06e25 [SATrip - XviD - Eng Mp3 - HardSub Ita] HDTVrip [TNT Village]

Size 172.688 MB   0 seeders     Added 2011-09-06 22:31:55

Stream torrent
Starting‥ You need BitLord! Get it from BitLord.com
To download or stream you need BitLord. Visit them at BitLord.com
General
Complete name : 25 - Overclockwise.avi
Format : AVI
Format/Info : Audio Video Interleave
File size : 165 MiB
Duration : 21mn 0s
Overall bit rate : 1 096 Kbps
Writing application : Some super fast AVI muxer
Writing library : VirtualDub build 30091/release

Video
ID : 0
Format : MPEG-4 Visual
Format profile : Advanced Simple@L5
Format settings, BVOP : 2
Format settings, QPel : No
Format settings, GMC : No warppoints
Format settings, Matrix : Default (H.263)
Muxing mode : Packed bitstream
Codec ID : XVID
Codec ID/Hint : XviD
Duration : 21mn 0s
Bit rate : 931 Kbps
Width : 624 pixels
Height : 352 pixels
Display aspect ratio : 16:9
Frame rate : 23.976 fps
Color space : YUV
Chroma subsampling : 4:2:0
Bit depth : 8 bits
Scan type : Progressive
Compression mode : Lossy
Bits/(Pixel*Frame) : 0.177
Stream size : 140 MiB (85%)
Writing library : XviD 64

Audio
ID : 1
Format : MPEG Audio
Format version : Version 1
Format profile : Layer 3
Codec ID : 55
Codec ID/Hint : MP3
Duration : 21mn 0s
Bit rate mode : Variable
Bit rate : 151 Kbps
Channel(s) : 2 channels
Sampling rate : 48.0 KHz
Compression mode : Lossy
Stream size : 22.8 MiB (14%)
Alignment : Aligned on interleaves
Interleave, duration : 24 ms (0.58 video frame)
Interleave, preload duration : 372 ms
25 - Overclockwise.avi 172.688 MB
Gathering some info...

Register and log in Isohunt and see no captcha anymore!

4000 symbols left
Hash c016235507b9dc28e0272e93e665452d655966ac

Related torrents for "Futurama S06e25 [SATrip - XviD - Eng Mp3 - HardSub Ita] HDTVrip [TNT Village]"