imdb
rating

6.8
The Disappearance of Alice Creed

The Disappearance of Alice Creed (2009)

Crime, Drama, Thriller

Full description
quality   dvdrip h264 bd fullhd hd x264

The Disappearance of Alice Creed 2009 DVDrip English Klam

Size 1.316 GB   0 seeders     Added 2011-09-08 01:43:06

Stream torrent
Starting‥ You need BitLord! Get it from BitLord.com
To download or stream you need BitLord. Visit them at BitLord.com
[img] image[/img]

With: Gemma Arterton, Eddie Marsan and Martin Compston

We zien hoe twee mannen een flat verbouwen, een bestelbus stelen en gereedschap verzamelen. Kalm vervolgen ze hun praktijken, maar al snel blijkt dat ze een sinister plan hebben. Gewapend en vermomd ontvoeren ze een jonge vrouw van de straat en binden haar vast op een bed in de flat...

Two men fortify a nondescript British apartment so it can serve as a prison, and then kidnap a woman and tie her to a bed. Before there's even time to react, we're plunged into a very nasty situation, but not a simple one. 

http://www.imdb.com/title/tt1379177

------------------ Dutch Friends ------------------
You can find my Friends at: http://www.Film-Test.nl 
------ They got my dutchs subs ---- and more ------

General:

Complete name                    : The Disappearance of Alice Creed\The Disappearance of Alice Creed.avi
Format                           : AVI
Format/Info                      : Audio Video Interleave
File size                        : 1.23 GiB
Duration                         : 1h 36mn
Overall bit rate                 : 1 824 Kbps

Video:

Format                           : MPEG-4 Visual
Format profile                   : Simple@L3
Format settings, BVOP            : No
Format settings, QPel            : No
Format settings, GMC             : No warppoints
Format settings, Matrix          : Default (H.263)
Codec ID                         : XVID
Codec ID/Hint                    : XviD
Duration                         : 1h 36mn
Bit rate                         : 1 365 Kbps
Width                            : 720 pixels
Height                           : 304 pixels
Display aspect ratio             : 2.35:1
Frame rate                       : 25.000 fps
Color space                      : YUV
Chroma subsampling               : 4:2:0
Bit depth                        : 8 bits
Scan type                        : Progressive
Bits/(Pixel*Frame)               : 0.249
Stream size                      : 939 MiB (75%)
Writing library                  : XviD 1.1.2 (UTC 2006-11-01)

Audio:

Format                           : AC-3
Format/Info                      : Audio Coding 3
Mode extension                   : CM (complete main)
Codec ID                         : 2000
Duration                         : 1h 36mn
Bit rate mode                    : Constant
Bit rate                         : 448 Kbps
Channel(s)                       : 6 channels
Channel positions                : Front: L C R, Side: L R, LFE
Sampling rate                    : 48.0 KHz
Bit depth                        : 16 bits
Stream size                      : 308 MiB (25%)
Alignment                        : Aligned on interleaves
Interleave, duration             : 32 ms (0.80 video frame)
Interleave, preload duration     : 160 ms
The Disappearance of Alice Creed/Cover/The Disappearance of Alice Creed.jpg 99.926 KB
The Disappearance of Alice Creed/Cover/www.Film-Test.nl.JPG 36.286 KB
The Disappearance of Alice Creed/New Dutch Site.txt 117 B
Gathering some info...

Register and log in Isohunt and see no captcha anymore!

4000 symbols left
Hash 80b1666a510473afcb1672c60ffb1209e0906e67

Related torrents for "The Disappearance of Alice Creed 2009 DVDrip English Klam"

Torrent search:

dvdrip 2009 english