Adele-Someone Like You 720p (Shy_Rage)

Size 54.12 MB   0 seeders     Added 2011-09-08 02:45:10

Stream torrent
Starting‥ You need BitLord! Get it from BitLord.com
10
To download or stream you need BitLord. Visit them at BitLord.com
~*~*~*~*~*~*~*~*~*Adele-Someone Like You 720p (Shy_Rage)~*~*~*~*~*~*~*~*~*
=========================================================================
~~~~~~~~~~~~~~~~~~~~~~~~~~~~~~~~~~~~~~~~~~~~~~~~~~~~~~~~~~~~~~~~~~~~~~~~~
-------------------------------------------------------------------------
General
Complete name : Adele-Someone Like You (Live in Her Room).MP4
Format : MPEG-4
Format profile : Base Media / Version 2
Codec ID : mp42
File size : 51.6 MiB
Duration : 6mn 28s
Overall bit rate : 1 116 Kbps
Encoded date : UTC 2011-01-28 01:07:50
Tagged date : UTC 2011-01-28 01:07:50
Video
ID : 1
Format : AVC
Format/Info : Advanced Video Codec
Format profile : High@L3.1
Format settings, CABAC : Yes
Format settings, ReFrames : 1 frame
Codec ID : avc1
Codec ID/Info : Advanced Video Coding
Duration : 6mn 28s
Bit rate : 983 Kbps
Maximum bit rate : 3 186 Kbps
Width : 1 280 pixels
Height : 720 pixels
Display aspect ratio : 16:9
Frame rate mode : Constant
Frame rate : 25.000 fps
Color space : YUV
Chroma subsampling : 4:2:0
Bit depth : 8 bits
Scan type : Progressive
Bits/(Pixel*Frame) : 0.043
Stream size : 45.5 MiB (88%)
Tagged date : UTC 2011-01-28 01:07:58
Audio
ID : 2
Format : AAC
Format/Info : Advanced Audio Codec
Format profile : LC
Codec ID : 40
Duration : 6mn 27s
Bit rate mode : Variable
Bit rate : 128 Kbps
Maximum bit rate : 161 Kbps
Channel(s) : 2 channels
Channel positions : Front: L R
Sampling rate : 44.1 KHz
Compression mode : Lossy
Stream size : 5.92 MiB (11%)
Encoded date : UTC 2011-01-28 01:07:54
Tagged date : UTC 2011-01-28 01:07:58
=========================================================================
~~~~~~~~~~~~~~~~~~~~~~~~~~~~~~~~~~~~~~~~~~~~~~~~~~~~~~~~~~~~~~~~~~~~~~~~~
-------------------------------------------------------------------------
Please SEED and RATE my torrents!! 
Adele-Someone Like You (Live in Her Room) [Shy_Rage].MP4 54.12 MB
Gathering some info...

Register and log in Isohunt and see no captcha anymore!

4000 symbols left
Hash 3085349E3562C0E31E0BD063323FBCDBC22922FC