MNV LEGO NinjaGo Das Geheimnis des Spinjitzu 2011 German dTVRiP XviD-BET [mnvv2 info]

Size 733.805 MB   0 seeders     Added 2011-09-08 02:56:45

Stream torrent
Starting‥ You need BitLord! Get it from 1BitLord.com
To download or stream you need BitLord. Visit them at BitLord.com
LEGO.NinjaGo.Das.Geheimnis.des.Spinjitzu.2011.German.dTVRiP.XviD-BET\r\n\r\nFormat :AVI\r\nFormat/Info :Audio Video Interleave\r\nFile size :700 MiB\r\nDuration :43mn 4s\r\nOverall bit rate :2271 Kbps\r\nWriting application :VirtualDubMod 1.5.10.2 (build 2540/release)\r\nWriting library :VirtualDubMod build 2540/release\r\n\r\nVideo\r\nID :0Format :MPEG-4 Visual\r\nFormat profile :Advanced Simple@L5\r\nFormat settings, BVOP :1Format settings, QPel :No\r\nFormat settings, GMC :No warppoints\r\nFormat settings, Matrix :Default (H.263)\r\nCodec ID :XVID\r\nCodec ID/Hint :XviD\r\nDuration :43mn 4s\r\nBit rate :2071 Kbps\r\nWidth :720 pixels\r\nHeight :400 pixels\r\nDisplay aspect ratio :16:9\r\nFrame rate :25.000 fps\r\nColor space :YUV\r\nChroma subsampling :4:2:0\r\nBit depth :8bits\r\nScan type :Progressive\r\nCompression mode :Lossy\r\nBits/(Pixel*Frame) :0.288\r\nStream size :638 MiB (91)\r\nWriting library :XviD 1.2.1 (UTC 2008-12-04)\r\n\r\nAudio\r\nID :1Format :MPEG Audio\r\nFormat version :Version 1Format profile :Layer 3Mode :Joint stereo\r\nMode extension :MS Stereo\r\nCodec ID :55\r\nCodec ID/Hint :MP3\r\nDuration :43mn 4s\r\nBit rate mode :Variable\r\nBit rate :192 Kbps\r\nChannel(s) :2channels\r\nSampling rate :48.0 KHz\r\nCompression mode :Lossy\r\nStream size :57.7 MiB (8)\r\nAlignment :Aligned on interleaves\r\nInterleave, duration :24 ms (0.60 video frame)\r\nInterleave, preload duration :573 ms\r\nWriting library :LAME3.98r\r\nEncoding settings :-m j-V 4-q 2-lowpass 18.6 --abr 192\r\n-------------------------------------------------------------------------------------\r\n----------\r\nNinjago ist in Gefahr! Der böse Garmadon will das Reich unterwerfen. Einzig sein\r\nweiser Bruder Sensei Wu und dessen vier Lehrlinge können Ninjago retten. Doch dazu\r\nmüssen sie die legendären Spinjitzu-Waffen finden.
lego_ng_dgds_dtv-bet.avi 733.805 MB
Gathering some info...

Register and log in Isohunt and see no captcha anymore!

4000 symbols left
Hash 708D1A20CAB29C9EAEFED52A799ECB77A8FC604F