Solo.Per.Vendetta.2011.iTALiAN.MD.TELESYNC.XviD-IDN_CREW[LordM]

Size 736.469 MB   4 seeders     Added 2011-09-08 23:16:20

Stream torrent
Starting‚Ä• You need BitLord! Get it from BitLord.com
To download or stream you need BitLord. Visit them at BitLord.com
General
Complete name                    : Solo.Per.Vendetta.2011.iTALiAN.MD.TELESYNC.XviD-IDN_CREW[LordM].avi
Format                           : AVI
Format/Info                      : Audio Video Interleave
File size                        : 702 MiB
Duration                         : 1h48mn
Overall bit rate                 : 1 853 Kbps
Writing application              : VirtualDubMod 1.5.10.2 (build 2540/release)
Writing library                  : VirtualDubMod build 2540/release

Video
ID                               : 0
Format                           : MPEG-4 Visual
Format profile                   : Advanced Simple@L5
Format settings, BVOP            : 2
Format settings, QPel            : No
Format settings, GMC             : No warppoints
Format settings, Matrix          : Custom
Codec ID                         : XVID
Codec ID/Hint                    : XviD
Duration                         : 1h48mn
Bit rate                         : 1 721 Kbps
Width                            : 720 pixels
Height                           : 304 pixels
Display aspect ratio             : 2.35:1
Frame rate                       : 25.000 fps
Color space                      : YUV
Chroma subsampling               : 4:2:0
Bit depth                        : 8 bits
Scan type                        : Progressive
Compression mode                 : Lossy
Bits/(Pixel*Frame)               : 0.315
Stream size                      : 649 MiB (93%)
Writing library                  : XviD 58

Audio
ID                               : 1
Format                           : MPEG Audio
Format version                   : Version 1
Format profile                   : Layer 3
Mode                             : Joint stereo
Mode extension                   : MS Stereo
Codec ID                         : 55
Codec ID/Hint                    : MP3
Duration                         : 1h48mn
Bit rate mode                    : Variable
Bit rate                         : 118 Kbps
Nominal bit rate                 : 128 Kbps
Channel(s)                       : 2 channels
Sampling rate                    : 48.0 KHz
Compression mode                 : Lossy
Stream size                      : 44.7 MiB (6%)
Alignment                        : Aligned on interleaves
Interleave, duration             : 24 ms (0.60 video frame)
Interleave, preload duration     : 544 ms
Writing library                  : LAME3.99a
Encoding settings                : -m j -V 4 -q 3 -lowpass 17 --abr 128
Solo.Per.Vendetta.2011.iTALiAN.MD.TELESYNC.XviD-IDN_CREW[LordM].avi 736.469 MB
Gathering some info...

Register and log in Isohunt and see no captcha anymore!

4000 symbols left
Hash 434F20E1D2768112ABCC73C042FF2150D3D718B2

Related torrents for "Solo.Per.Vendetta.2011.iTALiAN.MD.TELESYNC.XviD-IDN_CREW[LordM]"

Torrent search:

italian telesync 2011