MNV Gluecklich auf dem Dach der Welt dtv h264 mp4 [mnvv2 info]

Size 937.505 MB   0 seeders     Added 2011-09-09 02:57:15

Stream torrent
Starting‥ You need BitLord! Get it from BitLord.com
To download or stream you need BitLord. Visit them at BitLord.com
Glücklich auf dem Dach der Welt - Leben in Buthan\r\n\r\nFilm von Peter Kunz, ZDF-Studio Singapur\r\nMit der Finanzkrise ist überall das Unbehagen gegenüber dem bisherigen Modell von Wachstum und Fortschritt gewachsen. Selbst die OECD, die Organisation für wirtschaftliche Zusammenarbeit und Entwicklung, sucht nach einem menschlicheren Maßstab für den Wohlstand, der mehr beinhaltet als ein auf ständiges Wachstum ausgerichtetes Bruttosozialprodukt. Da fällt der Blick auf Bhutan.\r\n\r\nDas ebenso winzige wie arme Königreich im Himalaya hat kaum befestigte Straßen. Dennoch kehren seine jungen Leute nach dem Studium in New York oder Oxford gerne und fast vollzählig in die Heimat zurück. Welches andere Entwicklungsland kann das von sich behaupten?\r\n\r\nIm Juli 2008 hat das Land, beinahe unbemerkt vom Rest der Welt, den Übergang von der Monarchie zur parlamentarischen Demokratie gemeistert. In der Verfassung des jungen Staates ist das Streben nach dem „Bruttosozialglück“ festgeschrieben. Damit wurde die Losung, die bereits der alte König ausgegeben hatte, offiziell zum Staatsziel erklärt und die Zufriedenheit der Bürger über eine Politik des Fortschritts und des wirtschaftlichen Wachstums gestellt.\r\n\r\nZuvor lebte das Glück eher abgeschieden in Bhutan. Noch vor 20 Jahren wurden fast keine Fremden ins Land gelassen, bis vor zehn Jahren jede Nachricht persönlich über die Berge getragen. Es gab kein Fernsehen, kein Radio, keine Telefone. Natürlich hat auch Bhutan inzwischen seinen Schritt in Richtung Zukunft getan.\r\n\r\nZDF-Korrespondent Peter Kunz hat sich mit seinem Team aufgemacht, die Wurzeln des Glücks auf dem „Dach der Welt“ zu suchen. Sein fachkundiger Scout auf der Reise zu den Menschen und in die atemberaubende Landschaft des Himalaya-Staates ist Oberst Kado, ehemaliger Leibgardist des Königs und Mitglied des bhutanischen Adels.\r\n\r\nGeneral\r\nComplete name                    : Gluecklich.auf.dem.Dach.der.Welt.dtv.h264.mp4\r\nFormat                           : MPEG-4\r\nFormat profile                   : Base Media / Version 2\r\nCodec ID                         : mp42\r\nFile size                        : 894 MiB\r\nDuration                         : 43mn 38s\r\nOverall bit rate                 : 2 864 Kbps\r\nEncoded date                     : UTC 2011-09-01 00:37:53\r\nTagged date                      : UTC 2011-09-01 00:39:08\r\n\r\nVideo\r\nID                               : 1\r\nFormat                           : AVC\r\nFormat/Info                      : Advanced Video Codec\r\nFormat profile                   : Baseline@L3.0\r\nFormat settings, CABAC           : No\r\nFormat settings, ReFrames        : 2 frames\r\nCodec ID                         : avc1\r\nCodec ID/Info                    : Advanced Video Coding\r\nDuration                         : 43mn 38s\r\nBit rate mode                    : Variable\r\nBit rate                         : 2 668 Kbps\r\nWidth                            : 720 pixels\r\nHeight                           : 400 pixels\r\nDisplay aspect ratio             : 16:9\r\nFrame rate mode                  : Constant\r\nFrame rate                       : 25.000 fps\r\nColor space                      : YUV\r\nChroma subsampling               : 4:2:0\r\nBit depth                        : 8 bits\r\nScan type                        : Progressive\r\nBits/(Pixel*Frame)               : 0.371\r\nStream size                      : 833 MiB (93%)\r\nTitle                            : Apple Video Mediensteuerung\r\nEncoded date                     : UTC 2011-09-01 00:37:50\r\nTagged date                      : UTC 2011-09-01 00:39:08\r\nColor primaries                  : BT.601-6 525, BT.1358 525, BT.1700 NTSC, SMPTE 170M\r\nTransfer characteristics         : BT.709-5, BT.1361\r\nMatrix coefficients              : BT.601-6 525, BT.1358 525, BT.1700 NTSC, SMPTE 170M\r\n\r\nAudio\r\nID                               : 2\r\nFormat                           : AAC\r\nFormat/Info                      : Advanced Audio Codec\r\nFormat profile                   : LC\r\nCodec ID                         : 40\r\nDuration                         : 43mn 38s\r\nBit rate mode                    : Constant\r\nBit rate                         : 192 Kbps\r\nChannel(s)                       : 2 channels\r\nChannel positions                : Front: L R\r\nSampling rate                    : 48.0 KHz\r\nCompression mode                 : Lossy\r\nStream size                      : 59.9 MiB (7%)\r\nTitle                            : Apple Ton Mediensteuerung\r\nLanguage                         : German\r\nEncoded date                     : UTC 2011-09-01 00:37:50\r\nTagged date                      : UTC 2011-09-01 00:39:08
Gluecklich.auf.dem.Dach.der.Welt.dtv.h264.mp4 937.505 MB
Gathering some info...

Register and log in Isohunt and see no captcha anymore!

4000 symbols left
Hash DC36B1D220EC6AD5E807545487419FCBC2B1E7F4