BBC Proms

BBC Proms (1927)

Music

Full description

BBC Proms 2011_67 Beethovens Missa Solemnis

Size 3.711 GB   4 seeders     Added 2011-09-11 02:41:19

Stream torrent
Starting‥ You need BitLord! Get it from BitLord.com
To download or stream you need BitLord. Visit them at BitLord.com
Note: This torrent contains both a DVD ISO and an MP4 Video of the concert so I suggest you select whichever you prefer.
BBC Proms 2011, Number 67
BBC4 on 4 September
Thanks to GringoLoco & THE BBC
Beethoven:
Missa Solemnis (90 mins)
Helena Juntunen: soprano
Sarah Connolly: mezzo-soprano
Paul Groves: tenor
Matthew Rose: bass
London Philharmonic Choir
London Symphony Chorus
London Symphony Orchestra
Sir Colin Davis: conductor
Commentary in English
Fixed English subtitles
***************************
Format: DVD ISO PAL
Runtime: 1:39
Video
ID : 224 (0xE0)
Format : MPEG Video
Format version : Version 2
Format profile : Main@Main
Format settings, BVOP : Yes
Format settings, Matrix : Default
Bit rate mode : Variable
Bit rate : 3 171 Kbps
Nominal bit rate : 9 544 Kbps
Width : 720 pixels
Height : 576 pixels
Display aspect ratio : 16:9
Frame rate : 25.000 fps
Standard : PAL
Color space : YUV
Chroma subsampling : 4:2:0
Bit depth : 8 bits
Scan type : Interlaced
Scan order : Top Field First
Compression mode : Lossy
Bits/(Pixel*Frame) : 0.306
Audio
ID : 192 (0xC0)
Format : MPEG Audio
Format version : Version 1
Format profile : Layer 2
Bit rate mode : Constant
Bit rate : 256 Kbps
Channel(s) : 2 channels
Sampling rate : 48.0 KHz
Compression mode : Lossy
*********************************************
Format: MP4 468p
Runtime: 1:39
Video
ID : 1
Format : AVC
Format/Info : Advanced Video Codec
Format profile : Main@L3.0
Format settings, CABAC : Yes
Format settings, ReFrames : 4 frames
Codec ID : avc1
Codec ID/Info : Advanced Video Coding
Duration : 1h 39mn
Bit rate mode : Constant
Bit rate : 1 404 Kbps
Width : 832 pixels
Height : 468 pixels
Display aspect ratio : 16:9
Frame rate mode : Constant
Frame rate : 25.000 fps
Standard : PAL
Color space : YUV
Chroma subsampling : 4:2:0
Bit depth : 8 bits
Scan type : Progressive
Bits/(Pixel*Frame) : 0.144
Stream size : 995 MiB (93%)
Audio
ID : 2
Format : AAC
Format/Info : Advanced Audio Codec
Format profile : HE-AAC / LC
Codec ID : 40
Duration : 1h 39mn
Bit rate mode : Variable
Bit rate : 96.0 Kbps
Channel(s) : 2 channels
Channel positions : Front: L R
Sampling rate : 48.0 KHz / 24.0 KHz
Compression mode : Lossy
Stream size : 67.2 MiB (6%) 
BBC Proms 2011_67 Beethoven's Missa Solemnis/BBC Proms 2011_67 Beethoven's Missa Solemnis.iso 2.593 GB
BBC Proms 2011_67 Beethoven's Missa Solemnis/BBC Proms 2011_67 Beethoven's Missa Solemnis.mp4 1.118 GB
BBC Proms 2011_67 Beethoven's Missa Solemnis/BBC Proms 2011_67 Beethoven's Missa Solemnis.txt 3.547 KB
Gathering some info...

Register and log in Isohunt and see no captcha anymore!

4000 symbols left
Hash e3022d2db035c64530ff5a16d31782efa86bf1da

Related torrents for "BBC Proms 2011_67 Beethovens Missa Solemnis"