imdb
rating

7.4
Crazy, Stupid, Love.

Crazy, Stupid, Love. (2011)

Comedy, Drama, Romance

Full description
quality   hd dvdrip dvd telesync x264 dvdr cam

Crazy Stupid Love 2011 TS READNFO XViD - CLASSiFiED [SeedPeer]

Size 1.487 GB   2 seeders     Added 2011-09-13 02:54:02

Stream torrent
Starting‥ You need BitLord! Get it from 1BitLord.com
To download or stream you need BitLord. Visit them at BitLord.com
[img]image[/img]\r\n\r\nCrazy Stupid Love 2011 TS READNFO XViD - CLASSiFiED\r\n\r\nIMDB: http://www.imdb.com/title/tt1772240/              RELEASE DATE: 09/02/11\r\nSIZE:   1.37 gb                                             LENGTH: 1H 14MN\r\nSOURCE: V: RUSSIAN CAMRiP A: OWN                             HEIGHT: 392\r\nSUBTITLES: ENGLISH                                           WIDTH: 720\r\n\r\nINFO:\r\nVideo                                              \r\nID: 0                                              \r\nFormat: MPEG-4 Visual                             \r\nFormat profile: Advanced Simple@L5                \r\nFormat settings, BVOP: 2                           \r\nFormat settings, QPel: No                          \r\nFormat settings, GMC: No warppoints                \r\nFormat settings, Matrix: Default (H.263)           \r\nMuxing mode: Packed bitstream                      \r\nCodec ID: XVID                                     \r\nCodec ID/Hint: XviD                                \r\nDuration: 1h 52mn                                  \r\nBit rate: 1 613 Kbps                               \r\nWidth: 640 pixels                                  \r\nHeight: 304 pixels                                 \r\nDisplay aspect ratio: 2.2:1                        \r\nFrame rate: 29.970 fps                             \r\nColor space: YUV                                   \r\nChroma subsampling: 4:2:0\r\nBit depth: 8 bits\r\nScan type: Progressive\r\nCompression mode: Lossy\r\nBits/(Pixel*Frame): 0.277\r\nStream size: 1.26 GiB (92%)\r\nWriting library: XviD 64\r\n\r\nAudio\r\nID: 1\r\nFormat: MPEG Audio\r\nFormat version: Version 1\r\nFormat profile: Layer 3\r\nMode: Joint stereo\r\nMode extension: MS Stereo\r\nCodec ID: 55\r\nCodec ID/Hin: MP3\r\nDuration: 1h 52mn\r\nBit rate mode: Constant\r\nBit rate: 128 Kbps\r\nChannel(s): 2 channels\r\nSampling rate: 44.1 KHz\r\nCompression mode: Lossy\r\nStream size: 103 MiB (7%)\r\nAlignment: Split accross interleaves\r\nInterleave, duration: 33 ms (1.00 video frame)\r\n\r\n\r\nNOTES:\r\nThis release is CLASSiFiED..............\r\nOK here we are with a nice TS of a decent comedy.....\r\nWe were going to wait for better video before using this\r\nsuper sweet LiNE but cant wait forever so here it is :D\r\nVideo used was UnKnOwN's CAM so thanks to them for that....\r\nCropped sharpened some changed to the RGB and YUV as well as\r\nperspectiving it to try and hide the camera movement.....\r\nFirst 30 seconds are cam audio since we didnt have that\r\nin the LiNE.\r\n2 samples included cut from same area,\r\none from our TS and other from source cam to show difference in audio\r\n\r\nSCREENS:\r\n[img]image[/img]\r\n[img]image[/img]\r\n[img]image[/img]\r\n[img]image[/img]\r\n[img]image[/img]\r\n\r\nGREETS:\r\nIMAGiNE, CHOiCE, REVELATiON, BDK, FLAWL3SS, DTRG, TARIQ\r\n\r\n------------------\r\nUploader note: Didn't have the samples from CLASSiFiED so I made one. Thx CLASSiFiED !!\r\n\r\nCrazy, Stupid, Love (2011)\r\nPG-13  -  Comedy | Drama | Romance  -  Theater Date 29 July 2011\r\nCal (Steve Carell) and Emily (Julianne Moore) have the perfect life together living \r\nthe American dream... until Emily asks for a divorce. Now Cal, Mr Husband, has to \r\nnavigate the single scene with a little help from his professional bachelor friend \r\nJacob Palmer (Ryan Gosling). Make that a lot of help.
Crazy_Stupid_Love_2011_TS_READNFO_XViD_-_CLASSiFiED.avi 1.474 GB
Sample/Sample.Crazy.Stupid.Love.TS.CLASSiFiED.avi 13.812 MB
www.SeedPeer.com.txt 28 B
Gathering some info...

Register and log in Isohunt and see no captcha anymore!

4000 symbols left
Hash 7BFBAEB8FE57DE1183C4ACE2B8F3F8E5BFCEAEBA

Related torrents for "Crazy Stupid Love 2011 TS READNFO XViD - CLASSiFiED [SeedPeer]"

Torrent search:

telesync 2011