La Cassa Sbagliata (The Wrong Box, 1966) [ITA - ENG] [TNTVILLAGE]

Size 2.058 GB   6 seeders     Added 2011-09-14 02:22:49

Stream torrent
Starting‥ You need BitLord! Get it from BitLord.com
To download or stream you need BitLord. Visit them at BitLord.com

[b][color=red]LA CASSA SBAGLIATA - THE WRONG BOX[/b][/color]

[IMG]image[/IMG]

[b]IMDB link:[/b] http://www.imdb.com/title/tt0061204/

(mux by Zio Tibia)




[b][color=red].: Info :.[/color][/b]
[b]Regia / Director:[/b] Bryan Forbes
[b]Sceneggiatore / written by:[/b] Larry Gelbart, Burt Shevelove
[b]Titolo originale / Original Title:[/b] The Wrong Box
[b]Also Known as:[/b]
	13.000.000 dollaria zitoun klironomo 	(Greece)
	A Loteria da Vida 	   		(Brazil)
	Den som lever sist, ler best 		(Norway)
	La caja de las sorpresas 		(Spain)
	La cassa sbagliata 			(Italy)
	Un mort en pleine forme 		(France)
[b]Anno / Year:[/b] 1966
[b]Durata / Runtime:[/b] 101'
[b]Genere / Genre:[/b] Comedy
[b]Color|b/w:[/b] Color
[b]Cast:[/b] John Mills, Michael Caine, Ralph Richardson, Jeremy Lloyd, Peter Cook, Dudley Moore, Peter Sellers


[b]Languages:[/b] English, Italian
[b]Subtitles:[/b] NO


[b][color=red].: Screenshots :.[/color][/b]

[URL=http://postimage.org/image/mn6hok1w/][IMG]image[/IMG][/URL][URL=http://postimage.org/image/3qthtw04/][IMG]image[/IMG][/URL][URL=http://postimage.org/image/mnd3ty10/][IMG]image[/IMG][/URL][url=http://postimage.org/image/27v5cctac/][img]image[/img][/url]
[url=http://postimage.org/image/27v3otgsk/][img]image[/img][/url][url=http://postimage.org/image/27vaayuro/][img]image[/img][/url][url=http://postimage.org/image/27vf9kw90/][img]image[/img][/url][url=http://postimage.org/image/27vgx48qs/][img]image[/img][/url]

[b][color=red].: Plot & Review :.[/color][/b]
(from rottentomatoes.com )
Years before the story proper in The Wrong Box gets under way, a "tontine" is drawn up on behalf several young British boys. Each of the boys' parents had placed 1000 pounds in a pool, to be invested and expanded upon. The resultant fortune will go to the last surving member of the tontine. A series of montages depicts the various demises of the heirs (our favorite occurs when one of them is inadvertently beheaded while being knighted by Queen Victoria). Finally, only two of the tontine participants are left: aged brothers Ralph Richardson and John Mills. On his last legs, Mills is determined that Richardson will not outlive him, and to that end attempts to kill his brother; each attempt fails spectacularly, with the doddering Richardson none the wiser. Standing to benefit from the tontine are Mills' dimwitted med-student son Michael Caine and Richardson's greedy nephews Peter Cook and Dudley Moore. When Richardson is supposedly killed in a train wreck, Cook and Moore don't want the authorities to find out, so they appropriate what they think is their uncle's corpse and ship it home in a box. Thus it is that Caine finds the body of a perfect stranger on his doorstep. The farcical complications begin flying about thick and fast from this point onward. Among the participants in this wacky gigglefest are such formidable talents as Peter Sellers, Tony Hancock, Wilfred Lawson, Thorley Walters, Norman Rossington, Irene Handl and Cicely Courtenedge. Based on a novel by Robert Louis Stevenson, The Wrong Box is a delightful harkback to the glory days of Britain's Ealing comedies. We were so wrapped up in the story that we didn't even notice all those TV antennae sprouting up on the rooftops of Victorian London. ~ Hal Erickson, Rovi


[b][color=red].: Critica e Sinossi :.[/color][/b]
(da film.virgilio.it )
Nell'Inghilterra vittoriana c'è un'usanza stravagante, quella della Lotteria "tondina": dei venti iscritti solo uno è destinato a sopravvivere e sarà il vincitore a cui spetta la somma di centomila sterline. Dopo la morte del diciottesimo iscritto, a contendersi la somma strabiliante sono i due fratelli Finsbury, Masterman e Joseph, che si odiano e non si rivolgono la parola da quarant'anni. Joseph vive con due giovani eccentrici: Morris e John e con sua nipote Julia, che è segretamente innamorata di Michael, poco promettente studente in medicina e per di più nipote di Masterman. I due fratelli sono pronti a tutto: Masterman, molto malato, vorrebbe impossessarsi della somma per lasciarla in eredità a Michael e perciò tenta in ogni modo di attentare alla vita di Joseph. Anche Morris e John, per aiutare il loro amico sono disposti a far sparire Masterman con la complicità del dottor Pratt, un medico ubriacone. Che succederà se entrambi i contendenti saranno dati erroneamente per morti?


[b][color=red].: [URL=http://mediainfo.sourceforge.net]Mediainfo[/URL] report:.[/color][/b]
General
Complete name                    : /DATI/Torrent2/La Cassa Sbagliata (The Wrong Box, 1966).avi
Format                           : AVI
Format/Info                      : Audio Video Interleave
File size                        : 1.92 GiB
Duration                         : 1h 41mn
Overall bit rate                 : 2 714 Kbps
Writing application              : VirtualDubMod 1.6.0.0 SURROUND (build 2560/release)
Writing library                  : VirtualDubMod build 2560/release

Video
ID                               : 0
Format                           : MPEG-4 Visual
Format profile                   : Advanced Simple@L5
Format settings, BVOP            : Yes
Format settings, QPel            : No
Format settings, GMC             : No warppoints
Format settings, Matrix          : Custom
Codec ID                         : XVID
Codec ID/Hint                    : XviD
Duration                         : 1h 41mn
Bit rate                         : 2 059 Kbps
Width                            : 576 pixels
Height                           : 448 pixels
Display aspect ratio             : 1.286
Frame rate                       : 25.000 fps
Color space                      : YUV
Chroma subsampling               : 4:2:0
Bit depth                        : 8 bits
Scan type                        : Progressive
Bits/(Pixel*Frame)               : 0.319
Stream size                      : 1.45 GiB (76%)
Writing library                  : XviD 1.0.3 (UTC 2004-12-20)

Audio #1
ID                               : 1
Format                           : AC-3
Format/Info                      : Audio Coding 3
Mode extension                   : CM (complete main)
Codec ID                         : 2000
Duration                         : 1h 41mn
Bit rate mode                    : Constant
Bit rate                         : 448 Kbps
Channel(s)                       : 2 channels
Channel positions                : Front: L R
Sampling rate                    : 48.0 KHz
Bit depth                        : 16 bits
Stream size                      : 324 MiB (17%)
Alignment                        : Split accross interleaves
Interleave, duration             : 40 ms (1.00 video frame)
Interleave, preload duration     : 500 ms

Audio #2
ID                               : 2
Format                           : AC-3
Format/Info                      : Audio Coding 3
Mode extension                   : CM (complete main)
Codec ID                         : 2000
Duration                         : 1h 41mn
Bit rate mode                    : Constant
Bit rate                         : 192 Kbps
Channel(s)                       : 2 channels
Channel positions                : Front: L R
Sampling rate                    : 48.0 KHz
Bit depth                        : 16 bits
Stream size                      : 139 MiB (7%)
Alignment                        : Split accross interleaves
Interleave, duration             : 40 ms (1.00 video frame)
Interleave, preload duration     : 500 ms



[b][color=red].: Ringraziamenti :.[/color][/b]
* chi ha fatto il film
* chi ha fatto il dvd
* Zio Tibia per il mux
* chi ha scritto trame e recensioni
* postimage per l'hosting delle immagini


Orario di seed e Banda disponibile: 4/7 - ~24/24  --> 20++ Kbps
La Cassa Sbagliata (The Wrong Box, 1966).avi 2.058 GB
Gathering some info...

Register and log in Isohunt and see no captcha anymore!

4000 symbols left
Hash 2B685382D5B1615C7D70E991A807EE940998027D