imdb
rating

3.2
Creature

Creature (2014)

Horror, Science Fiction

Full description
quality   dvdr dvd dvdrip x264

Creature R5 READNFO XViD - IMAGiNE

Size 836.936 MB   1 seeders     Added 2011-09-15 09:55:11

Stream torrent
Starting‥ You need BitLord! Get it from BitLord.com
To download or stream you need BitLord. Visit them at BitLord.com
Another Fine Release Brought to you from - IMAGiNE                  

                                               

******************************************************************************************

                               [SIZE=14]Creature R5 READNFO XViD - IMAGiNE[/SIZE][COLOR=#DD0000][/COLOR]                          

******************************************************************************************

Ripper ...........: IMAGiNE              IMDB Rating.......: 4.1/10                      

Video Codec.......: XViD                 Release Date......: 09/09/11

Audio Codec.......: MP3                  Theatre Date......: 09/09/11

Audio Bitrate.....: 128                  Runtime...........: 1h 15mn

Subtitles.........: ENGLISH              Language..........: ENGLISH

Resolution........: 720 x 304            IMDb URL..........: [COLOR=#33CC00]http://www.imdb.com/title/tt1686018/[/COLOR]

[color=yellow]DETAILS:[/color]

Video

ID                               : 0

Format                           : MPEG-4 Visual

Format profile                   : Advanced Simple@L5

Format settings, BVOP            : 2

Format settings, QPel            : No

Format settings, GMC             : No warppoints

Format settings, Matrix          : Default (MPEG)

Muxing mode                      : Packed bitstream

Codec ID                         : XVID

Codec ID/Hint                    : XviD

Duration                         : 1h 15mn

Bit rate                         : 1 837 Kbps

Width                            : 720 pixels

Height                           : 336 pixels

Display aspect ratio             : 2.2:1

Frame rate                       : 25.000 fps

Color space                      : YUV

Chroma subsampling               : 4:2:0

Bit depth                        : 8 bits

Scan type                        : Progressive

Compression mode                 : Lossy

Bits/(Pixel*Frame)               : 0.304

Stream size                      : 1.28 GiB (93%)

Writing library                  : XviD 64

Audio

ID                               : 1

Format                           : MPEG Audio

Format version                   : Version 1

Format profile                   : Layer 3

Mode                             : Joint stereo

Mode extension                   : MS Stereo

Codec ID                         : 55

Codec ID/Hint                    : MP3

Duration                         : 1h 15mn

Bit rate mode                    : Constant

Bit rate                         : 128 Kbps

Channel(s)                       : 2 channels

Sampling rate                    : 44.1 KHz

Compression mode                 : Lossy

Stream size                      : 91.1 MiB (6%)

Alignment                        : Split accross interleaves

Interleave, duration             : 40 ms (1.00 video frame)

[color=yellow]SOURCES:[/color]

VIDEO: ........ Creature R5 READNFO XViD - IMAGiNE :D

AUDIO: ........ Own :D

[color=yellow]NOTES:[/color]

IMAGiNE bringing you another release..........

Ok here we are with a somewhat decent R5 of Creature :P

Video wasnt the greatest, has some colors issues and so on

So we made a script to sharpen and adjusted the colors a bit

but not much could be done without messing up something else

Audio is also decent cam audio, a bit loud at times but not too bad

which was filtered synced and muxed to our encode :D

Note: Bray will be Out Soon ... thanks


[color=yellow]GREETS:[/color]

FLAWL3SS,KINOPARK,Rx,ELEKTRI4KA,ADDiCTED,Autotron,CiNEDUB,CRYS

And to all the other p2p grps past and present

[COLOR=RED]Looking for these,syncers,cammers,audio,silver supplier.....Have anything to offer????......

Contact us imaginegroup@hushmail.com[/COLOR][/pre]
Creature R5 READNFO XViD - IMAGiNE.avi 836.922 MB
Creature R5 READNFO XViD - IMAGiNE.nfo 13.396 KB
Gathering some info...

Register and log in Isohunt and see no captcha anymore!

4000 symbols left
Hash 7F4574E37CBF554E477EE2C3EDE77D8F45097974

Related torrents for "Creature R5 READNFO XViD - IMAGiNE"

Torrent search:

dvd