Staind - Making Of Staind (2011) XVID DVDRip

Size 733.979 MB   0 seeders     Added 2011-09-16 02:44:45

Stream torrent
Starting‥ You need BitLord! Get it from 1BitLord.com
10
To download or stream you need BitLord. Visit them at BitLord.com
This is Bonus DVD from deluxe edition of album staind - staind (2011). This DVD contains a Documentary called "Making Of Staind".
Format : AVI
Format/Info : Audio Video Interleave
File size : 700 MiB
Duration : 1h 1mn
Overall bit rate : 1 586 Kbps
Writing application : VirtualDubMod 1.5.10.2 (build 2540/release)
Writing library : VirtualDubMod build 2540/release
Video
ID : 0
Format : MPEG-4 Visual
Format profile : Advanced Simple@L5
Format settings, BVOP : 2
Format settings, QPel : No
Format settings, GMC : No warppoints
Format settings, Matrix : Custom
Muxing mode : Packed bitstream
Codec ID : XVID
Codec ID/Hint : XviD
Duration : 1h 1mn
Bit rate : 1 351 Kbps
Width : 640 pixels
Height : 352 pixels
Display aspect ratio : 16:9
Frame rate : 29.970 fps
Color space : YUV
Chroma subsampling : 4:2:0
Bit depth : 8 bits
Scan type : Progressive
Compression mode : Lossy
Bits/(Pixel*Frame) : 0.200
Stream size : 596 MiB (85%)
Writing library : XviD 64
Audio
ID : 1
Format : AC-3
Format/Info : Audio Coding 3
Mode extension : CM (complete main)
Codec ID : 2000
Duration : 1h 1mn
Bit rate mode : Constant
Bit rate : 224 Kbps
Channel(s) : 2 channels
Channel positions : Front: L R
Sampling rate : 48.0 KHz
Bit depth : 16 bits
Compression mode : Lossy
Stream size : 98.8 MiB (14%)
Alignment : Split accross interleaves
Interleave, duration : 33 ms (1.00 video frame)
Interleave, preload duration : 500 ms
 
Staind - Making Of Staind (2011) XVID DVDRip.avi 733.979 MB
Gathering some info...

Register and log in Isohunt and see no captcha anymore!

4000 symbols left
Hash E97AC37E62D1FB36026ADDC663CA8988D13E883E