imdb
rating

6.8
The Inbetweeners Movie

The Inbetweeners Movie (2011)

Comedy

Full description
quality   dvdrip telesync dvdr

The Inbetweeners movie (2011) TS DVDRip XviD

Size 739.064 MB   0 seeders     Added 2011-09-18 03:05:32

Stream torrent
Starting‥ You need BitLord! Get it from BitLord.com
To download or stream you need BitLord. Visit them at BitLord.com
The Inbetweeners movie (2011) TS DVDRip XviD\r\n \r\nhttp://www.imdb.com/title/tt1716772/\r\n\r\nFormat : AVI\r\nFormat/Info : Audio Video Interleave\r\nFile size : 704 MiB\r\nDuration : 1h 25mn\r\nOverall bit rate : 1 211 Kbps\r\n\r\nVideo\r\nID : 0\r\nFormat : MPEG-4 Visual\r\nFormat profile : Advanced Simple@L5\r\nFormat settings, BVOP : Yes\r\nFormat settings, QPel : No\r\nFormat settings, GMC : No warppoints\r\nFormat settings, Matrix : Default (H.263)\r\nCodec ID : XVID\r\nCodec ID/Hint : XviD\r\nDuration : 1h 25mn\r\nBit rate : 976 Kbps\r\nWidth : 640 pixels\r\nHeight : 360 pixels\r\nDisplay aspect ratio : 16:9\r\nFrame rate : 29.970 fps\r\nColor space : YUV\r\nChroma subsampling : 4:2:0\r\nBit depth : 8 bits\r\nScan type : Progressive\r\nBits/(Pixel*Frame) : 0.141\r\nStream size : 599 MiB (81%)\r\nWriting library : XviD 1.2.1 (UTC 2008-12-04)\r\n\r\nAudio\r\nID : 1\r\nFormat : AC-3\r\nFormat/Info : Audio Coding 3\r\nMode extension : CM (complete main)\r\nCodec ID : 2000\r\nDuration : 1h 25mn\r\nBit rate mode : Constant\r\nBit rate : 224 Kbps\r\nChannel(s) : 2 channels\r\nChannel positions : Front: L R\r\nSampling rate : 48.0 KHz\r\nBit depth : 16 bits\r\nStream size : 138 MiB (18%)\r\nAlignment : Aligned on interleaves\r\nInterleave, duration : 33 ms (1.00 video frame)\r\nInterleave, preload duration : 512 ms\r\n\r\n\r\nNFO:\r\n\r\nFour socially troubled 18-year-olds from the south of England go on holiday to Malia.\r\n\r\nDirector:\r\nBen Palmer\r\nWriters:\r\nIain Morris, Damon Beesley\r\nStars:\r\nJames Buckley, Blake Harrison and Joe Thomas
Broken file _ FiX.txt 276 B
README FIRST.txt 276 B
RELEASE NOTES.txt 276 B
Gathering some info...

Register and log in Isohunt and see no captcha anymore!

4000 symbols left
Hash 7DD64F76394C2FD77AC72C1D390445EB1CFADDAC

Related torrents for "The Inbetweeners movie (2011) TS DVDRip XviD"

Torrent search:

dvdrip telesync 2011