Way Out

Way Out (1961)

Anthology, Horror/Supernatural

Full description

The_Foo_Fighters_No_Way_Out_480p HDTV x264_TTL

Size 71.462 MB   0 seeders     Added 2011-09-20 07:00:48

Stream torrent
Starting‥ You need BitLord! Get it from BitLord.com
To download or stream you need BitLord. Visit them at BitLord.com
This also includes an MP3. 
 
 
Enjoy and please share. 
 
TTLTTLTTLTTLTTLTTLTTLTTLTTLTTLTTLTTLTTLTTLTTLTTLTTLTTLTTLTTLTTLTTLTTLTTLTTLTTLTTL 
 
 
The_Foo_Fighters_No_Way_Out_480p.HDTV.x264_TTL.mkv
Format : Matroska
File size : 60.7 MiB
Duration : 3mn 15s
Overall bit rate : 2 603 Kbps
Writing application : HandBrake 0.9.5
Writing library : libmkv 0.6.4.1
Video
ID : 1
Format : AVC
Format/Info : Advanced Video Codec
Format profile : High@L3.0
Format settings, CABAC : Yes
Format settings, ReFrames : 4 frames
Muxing mode : Container profile=Unknown@3.0
Codec ID : V_MPEG4/ISO/AVC
Duration : 3mn 15s
Bit rate : 2 167 Kbps
Nominal bit rate : 2 210 Kbps
Width : 624 pixels
Height : 352 pixels
Display aspect ratio : 16:9
Frame rate mode : Variable
Frame rate : 29.970 fps
Resolution : 8 bits
Colorimetry : 4:2:0
Scan type : Progressive
Bits/(Pixel*Frame) : 0.329
Stream size : 50.5 MiB (83%)
Writing library : x264 core 112
Encoding settings : cabac=1 / ref=3 / deblock=1:0:0 / analyse=0x3:0x113 / 
me=hex / subme=7 / psy=1 / psy_rd=1.00:0.00 / mixed_ref=1 / me_range=16 / chroma_me=1 / 
trellis=1 / 8x8dct=1 / cqm=0 / deadzone=21,11 / fast_pskip=1 / chroma_qp_offset=-2 / 
threads=6 / sliced_threads=0 / nr=0 / decimate=1 / interlaced=0 / constrained_intra=0 / 
bframes=3 / b_pyramid=2 / b_adapt=1 / b_bias=0 / direct=1 / weightb=1 / open_gop=0 / 
weightp=2 / keyint=300 / keyint_min=29 / scenecut=40 / intra_refresh=0 / rc_lookahead=40 / 
rc=2pass / mbtree=1 / bitrate=2210 / ratetol=1.0 / qcomp=0.60 / qpmin=3 / qpmax=51 / 
qpstep=4 / cplxblur=20.0 / qblur=0.5 / ip_ratio=1.40 / aq=1:1.00
Color primaries : BT.601-6 525, BT.1358 525, BT.1700 NTSC, SMPTE 170M
Transfer characteristics : BT.709-5, BT.1361
Matrix coefficients : BT.601-6 525, BT.1358 525, BT.1700 NTSC, SMPTE 170M
Audio
ID : 2
Format : AC-3
Format/Info : Audio Coding 3
Codec ID : A_AC3
Duration : 3mn 15s
Bit rate mode : Constant
Bit rate : 384 Kbps
Channel(s) : 2 channels
Channel positions : L R
Sampling rate : 48.0 KHz
Stream size : 8.96 MiB (15%)
 
 
 
The_Foo_Fighters_No_Way_Out_480p.HDTV.x264_TTL/The_Foo_Fighters_No_Way_Out_480p.HDTV.x264_TTL.mkv 63.648 MB
The_Foo_Fighters_No_Way_Out_480p.HDTV.x264_TTL/The_Foo_Fighters_No_Way_Out_480p.HDTV.x264_TTL.mp3 7.812 MB
The_Foo_Fighters_No_Way_Out_480p.HDTV.x264_TTL/The_Foo_Fighters_No_Way_Out_480p.HDTV.x264_TTL.txt 2.777 KB
Gathering some info...

Register and log in Isohunt and see no captcha anymore!

4000 symbols left
Hash 6b8e026c30b0fd843f568f1023db2f0d395968b1

Related torrents for "The_Foo_Fighters_No_Way_Out_480p HDTV x264_TTL"

Torrent search:

hdtv