Boban Rajovic 2010 - Mijenjam (Full Album) - Sebastian[Ub3r]

Size 108.851 MB   4 seeders     Added 2011-09-21 02:51:54

Stream torrent
Starting‥ You need BitLord! Get it from 1BitLord.com
10
To download or stream you need BitLord. Visit them at BitLord.com
[img]image[/img]\r\nBoban Rajovic 2010 - Mijenjam (Full Album) - Sebastian[Ub3r]Boban Rajovic - Kraljica I Kralj.mp3\r\nFormat : MPEG Audio\r\nFile size : 9.00 MiB\r\nDuration : 3mn 55s\r\nOverall bit rate : 320 Kbps\r\nTrack name : Boban Rajovic - Kraljica I Kralj\r\nGenre : Other\r\nWriting library : LAME3.92 \r\nAudio\r\nFormat : MPEG Audio\r\nFormat version : Version 1\r\nFormat profile : Layer 3\r\nDuration : 3mn 56s\r\nBit rate mode : Constant\r\nBit rate : 320 Kbps\r\nChannel(s) : 2 channels\r\nSampling rate : 44.1 KHz\r\nCompression mode : Lossy\r\nStream size : 9.00 MiB (100%)\r\nWriting library : LAME3.92 \r\nEncoding settings : -m s -V 4 -q 5 -lowpass 21.4\r\n\r\nBoban Rajovic 2010 - Mijenjam (Full Album) - Sebastian[Ub3r]Boban Rajovic - 011 (feat. Ivana Selakov).mp3\r\nFormat : MPEG Audio\r\nFile size : 8.36 MiB\r\nDuration : 3mn 38s\r\nOverall bit rate : 320 Kbps\r\nTrack name : Boban Rajovic - 011 (feat. Ivana Selakov)\r\nGenre : Other\r\nWriting library : LAME3.92 \r\nAudio\r\nFormat : MPEG Audio\r\nFormat version : Version 1\r\nFormat profile : Layer 3\r\nDuration : 3mn 39s\r\nBit rate mode : Constant\r\nBit rate : 320 Kbps\r\nChannel(s) : 2 channels\r\nSampling rate : 44.1 KHz\r\nCompression mode : Lossy\r\nStream size : 8.35 MiB (100%)\r\nWriting library : LAME3.92 \r\nEncoding settings : -m s -V 4 -q 5 -lowpass 21.4\r\n\r\nBoban Rajovic 2010 - Mijenjam (Full Album) - Sebastian[Ub3r]Boban Rajovic - Luda Glava.mp3\r\nFormat : MPEG Audio\r\nFile size : 8.72 MiB\r\nDuration : 3mn 48s\r\nOverall bit rate : 320 Kbps\r\nTrack name : Boban Rajovic - Luda Glava\r\nGenre : Other\r\nWriting library : LAME3.92 \r\nAudio\r\nFormat : MPEG Audio\r\nFormat version : Version 1\r\nFormat profile : Layer 3\r\nDuration : 3mn 48s\r\nBit rate mode : Constant\r\nBit rate : 320 Kbps\r\nChannel(s) : 2 channels\r\nSampling rate : 44.1 KHz\r\nCompression mode : Lossy\r\nStream size : 8.72 MiB (100%)\r\nWriting library : LAME3.92 \r\nEncoding settings : -m s -V 4 -q 5 -lowpass 21.4\r\n\r\nBoban Rajovic 2010 - Mijenjam (Full Album) - Sebastian[Ub3r]Boban Rajovic - Mijenjam.mp3\r\nFormat : MPEG Audio\r\nFile size : 8.97 MiB\r\nDuration : 3mn 55s\r\nOverall bit rate : 320 Kbps\r\nTrack name : Boban Rajovic - Mijenjam\r\nGenre : Other\r\nWriting library : LAME3.92 \r\nAudio\r\nFormat : MPEG Audio\r\nFormat version : Version 1\r\nFormat profile : Layer 3\r\nDuration : 3mn 55s\r\nBit rate mode : Constant\r\nBit rate : 320 Kbps\r\nChannel(s) : 2 channels\r\nSampling rate : 44.1 KHz\r\nCompression mode : Lossy\r\nStream size : 8.97 MiB (100%)\r\nWriting library : LAME3.92 \r\nEncoding settings : -m s -V 4 -q 5 -lowpass 21.4\r\n\r\nBoban Rajovic 2010 - Mijenjam (Full Album) - Sebastian[Ub3r]Boban Rajovic - 011 (feat. Ivana Selakov) (Winter Mix).mp3\r\nFormat : MPEG Audio\r\nFile size : 9.58 MiB\r\nDuration : 4mn 11s\r\nOverall bit rate : 320 Kbps\r\nTrack name : Boban Rajovic - 011 (feat. Ivana Selakov) (Winter Mix)\r\nGenre : Other\r\nWriting library : LAME3.92 \r\nAudio\r\nFormat : MPEG Audio\r\nFormat version : Version 1\r\nFormat profile : Layer 3\r\nDuration : 4mn 11s\r\nBit rate mode : Constant\r\nBit rate : 320 Kbps\r\nChannel(s) : 2 channels\r\nSampling rate : 44.1 KHz\r\nCompression mode : Lossy\r\nStream size : 9.58 MiB (100%)\r\nWriting library : LAME3.92 \r\nEncoding settings : -m s -V 4 -q 5 -lowpass 21.4\r\n\r\nBoban Rajovic 2010 - Mijenjam (Full Album) - Sebastian[Ub3r]Boban Rajovic - Kumovi.mp3\r\nFormat : MPEG Audio\r\nFile size : 7.47 MiB\r\nDuration : 3mn 15s\r\nOverall bit rate : 320 Kbps\r\nTrack name : Boban Rajovic - Kumovi\r\nGenre : Other\r\nWriting library : LAME3.92 \r\nAudio\r\nFormat : MPEG Audio\r\nFormat version : Version 1\r\nFormat profile : Layer 3\r\nDuration : 3mn 15s\r\nBit rate mode : Constant\r\nBit rate : 320 Kbps\r\nChannel(s) : 2 channels\r\nSampling rate : 44.1 KHz\r\nCompression mode : Lossy\r\nStream size : 7.47 MiB (100%)\r\nWriting library : LAME3.92 \r\nEncoding settings : -m s -V 4 -q 5 -lowpass 21.4\r\n\r\nBoban Rajovic 2010 - Mijenjam (Full Album) - Sebastian[Ub3r]Boban Rajovic - Ptica Selica.mp3\r\nFormat : MPEG Audio\r\nFile size : 8.73 MiB\r\nDuration : 3mn 48s\r\nOverall bit rate : 320 Kbps\r\nTrack name : Boban Rajovic - Ptica Selica\r\nGenre : Other\r\nWriting library : LAME3.92 \r\nAudio\r\nFormat : MPEG Audio\r\nFormat version : Version 1\r\nFormat profile : Layer 3\r\nDuration : 3mn 48s\r\nBit rate mode : Constant\r\nBit rate : 320 Kbps\r\nChannel(s) : 2 channels\r\nSampling rate : 44.1 KHz\r\nCompression mode : Lossy\r\nStream size : 8.72 MiB (100%)\r\nWriting library : LAME3.92 \r\nEncoding settings : -m s -V 4 -q 5 -lowpass 21.4\r\n\r\nBoban Rajovic 2010 - Mijenjam (Full Album) - Sebastian[Ub3r]Boban Rajovic - Kafanski Fakultet.mp3\r\nFormat : MPEG Audio\r\nFile size : 8.07 MiB\r\nDuration : 3mn 31s\r\nOverall bit rate : 320 Kbps\r\nTrack name : Boban Rajovic - Kafanski Fakultet\r\nGenre : Other\r\nWriting library : LAME3.92 \r\nAudio\r\nFormat : MPEG Audio\r\nFormat version : Version 1\r\nFormat profile : Layer 3\r\nDuration : 3mn 31s\r\nBit rate mode : Constant\r\nBit rate : 320 Kbps\r\nChannel(s) : 2 channels\r\nSampling rate : 44.1 KHz\r\nCompression mode : Lossy\r\nStream size : 8.07 MiB (100%)\r\nWriting library : LAME3.92 \r\nEncoding settings : -m s -V 4 -q 5 -lowpass 21.4\r\n\r\nBoban Rajovic 2010 - Mijenjam (Full Album) - Sebastian[Ub3r]Boban Rajovic - Oprosti Mi.mp3\r\nFormat : MPEG Audio\r\nFile size : 10.5 MiB\r\nDuration : 4mn 33s\r\nOverall bit rate : 320 Kbps\r\nTrack name : Boban Rajovic - Oprosti Mi\r\nGenre : Other\r\nWriting library : LAME3.92 \r\nAudio\r\nFormat : MPEG Audio\r\nFormat version : Version 1\r\nFormat profile : Layer 3\r\nDuration : 4mn 34s\r\nBit rate mode : Constant\r\nBit rate : 320 Kbps\r\nChannel(s) : 2 channels\r\nSampling rate : 44.1 KHz\r\nCompression mode : Lossy\r\nStream size : 10.5 MiB (100%)\r\nWriting library : LAME3.92 \r\nEncoding settings : -m s -V 4 -q 5 -lowpass 21.4\r\n\r\nBoban Rajovic 2010 - Mijenjam (Full Album) - Sebastian[Ub3r]Boban Rajovic - Princeza.mp3\r\nFormat : MPEG Audio\r\nFile size : 7.54 MiB\r\nDuration : 3mn 17s\r\nOverall bit rate : 320 Kbps\r\nTrack name : Boban Rajovic - Princeza\r\nGenre : Other\r\nWriting library : LAME3.92 \r\nAudio\r\nFormat : MPEG Audio\r\nFormat version : Version 1\r\nFormat profile : Layer 3\r\nDuration : 3mn 17s\r\nBit rate mode : Constant\r\nBit rate : 320 Kbps\r\nChannel(s) : 2 channels\r\nSampling rate : 44.1 KHz\r\nCompression mode : Lossy\r\nStream size : 7.54 MiB (100%)\r\nWriting library : LAME3.92 \r\nEncoding settings : -m s -V 4 -q 5 -lowpass 21.4\r\n\r\nBoban Rajovic 2010 - Mijenjam (Full Album) - Sebastian[Ub3r]Boban Rajovic - Zdravo Mila.mp3\r\nFormat : MPEG Audio\r\nFile size : 8.89 MiB\r\nDuration : 3mn 52s\r\nOverall bit rate : 320 Kbps\r\nTrack name : Boban Rajovic - Zdravo Mila\r\nGenre : Other\r\nWriting library : LAME3.92 \r\nAudio\r\nFormat : MPEG Audio\r\nFormat version : Version 1\r\nFormat profile : Layer 3\r\nDuration : 3mn 53s\r\nBit rate mode : Constant\r\nBit rate : 320 Kbps\r\nChannel(s) : 2 channels\r\nSampling rate : 44.1 KHz\r\nCompression mode : Lossy\r\nStream size : 8.89 MiB (100%)\r\nWriting library : LAME3.92 \r\nEncoding settings : -m s -V 4 -q 5 -lowpass 21.4\r\n\r\nBoban Rajovic 2010 - Mijenjam (Full Album) - Sebastian[Ub3r]Boban Rajovic - Jedan Je Zivot.mp3\r\nFormat : MPEG Audio\r\nFile size : 8.01 MiB\r\nDuration : 3mn 29s\r\nOverall bit rate : 320 Kbps\r\nTrack name : Boban Rajovic - Jedan Je Zivot\r\nGenre : Other\r\nWriting library : LAME3.92 \r\nAudio\r\nFormat : MPEG Audio\r\nFormat version : Version 1\r\nFormat profile : Layer 3\r\nDuration : 3mn 30s\r\nBit rate mode : Constant\r\nBit rate : 320 Kbps\r\nChannel(s) : 2 channels\r\nSampling rate : 44.1 KHz\r\nCompression mode : Lossy\r\nStream size : 8.01 MiB (100%)\r\nWriting library : LAME3.92 \r\nEncoding settings : -m s -V 4 -q 5 -lowpass 21.4\r\n[img]image[/img]
Boban Rajovic - 011 (feat. Ivana Selakov) (Winter Mix).mp3 10.047 MB
Boban Rajovic - 011 (feat. Ivana Selakov).mp3 8.762 MB
Boban Rajovic - Jedan Je Zivot.mp3 8.4 MB
Gathering some info...

Register and log in Isohunt and see no captcha anymore!

4000 symbols left
Hash E82E94DF770585C2A1445AE66A16CC83AE354358