Chimaira - Year Of The Snake Music Video [360p] [2011] MP4 -BSAA

Size 19.571 MB   0 seeders     Added 2011-09-22 02:43:43

Stream torrent
Starting‚Ä• You need BitLord! Get it from 1BitLord.com
To download or stream you need BitLord. Visit them at BitLord.com
Please seed.
Format : MPEG-4
Format profile : Base Media / Version 2
Codec ID : mp42
File size : 18.7 MiB
Duration : 3mn 49s
Overall bit rate : 682 Kbps
Video
ID : 1
Format : AVC
Format/Info : Advanced Video Codec
Format profile : Baseline@L3.0
Format settings, CABAC : No
Format settings, ReFrames : 1 frame
Codec ID : avc1
Codec ID/Info : Advanced Video Coding
Duration : 3mn 49s
Bit rate : 581 Kbps
Maximum bit rate : 1 784 Kbps
Width : 640 pixels
Height : 360 pixels
Display aspect ratio : 16:9
Frame rate mode : Variable
Frame rate : 29.970 fps
Minimum frame rate : 29.412 fps
Maximum frame rate : 30.303 fps
Color space : YUV
Chroma subsampling : 4:2:0
Bit depth : 8 bits
Scan type : Progressive
Bits/(Pixel*Frame) : 0.084
Stream size : 15.9 MiB (85%)
Audio
ID : 2
Format : AAC
Format/Info : Advanced Audio Codec
Format profile : LC
Codec ID : 40
Duration : 3mn 49s
Bit rate mode : Variable
Bit rate : 96.0 Kbps
Maximum bit rate : 140 Kbps
Channel(s) : 2 channels
Channel positions : Front: L R
Sampling rate : 44.1 KHz
Compression mode : Lossy
Stream size : 2.60 MiB (14%)
 
Chimaira - Year Of The Snake Music Video [360p] [2011] MP4 -BSAA.mp4 19.571 MB
Gathering some info...

Register and log in Isohunt and see no captcha anymore!

4000 symbols left
Hash FB668AC20DFA061C7F43286E42B571948C00D447