For Today - Devastator Video [360p] [2011] MP4 -BSAA.mp4

Size 20.195 MB   0 seeders     Added 2011-09-22 02:43:47

Stream torrent
Starting‥ You need BitLord! Get it from 1BitLord.com
To download or stream you need BitLord. Visit them at BitLord.com
Please seed.
Format : MPEG-4
Format profile : Base Media / Version 2
Codec ID : mp42
File size : 19.3 MiB
Duration : 4mn 6s
Overall bit rate : 655 Kbps
Video
ID : 2
Format : AVC
Format/Info : Advanced Video Codec
Format profile : Baseline@L3.0
Format settings, CABAC : No
Format settings, ReFrames : 1 frame
Codec ID : avc1
Codec ID/Info : Advanced Video Coding
Duration : 4mn 6s
Bit rate : 539 Kbps
Maximum bit rate : 1 670 Kbps
Width : 480 pixels
Height : 360 pixels
Display aspect ratio : 4:3
Frame rate mode : Constant
Frame rate : 29.917 fps
Color space : YUV
Chroma subsampling : 4:2:0
Bit depth : 8 bits
Scan type : Progressive
Bits/(Pixel*Frame) : 0.104
Stream size : 15.9 MiB (82%)
Audio
ID : 1
Format : AAC
Format/Info : Advanced Audio Codec
Format profile : LC
Codec ID : 40
Duration : 4mn 6s
Bit rate mode : Variable
Bit rate : 113 Kbps
Maximum bit rate : 134 Kbps
Channel(s) : 2 channels
Channel positions : Front: L R
Sampling rate : 44.1 KHz
Compression mode : Lossy
Stream size : 3.33 MiB (17%)
 
For Today - Devastator Video [360p] [2011] MP4 -BSAA.mp4 20.195 MB
Gathering some info...

Register and log in Isohunt and see no captcha anymore!

4000 symbols left
Hash 944A99391196D26B3A96B40D395F0FDC88AB55D9