imdb
rating

7.3
The Girl Who Kicked the Hornet's Nest

The Girl Who Kicked the Hornet's Nest (2009)

Action, Crime, Mystery, Thriller

Full description
quality   dvdrip x264 hd bd h264

Millenium 3, The Girl Who Kicked the Hornets Nest 2009 ISO Kla

Size 4.694 GB   2 seeders     Added 2011-09-22 15:00:46

Stream torrent
Starting‥ You need BitLord! Get it from BitLord.com
10
To download or stream you need BitLord. Visit them at BitLord.com
[img] image[/img]

With: Michael Nyqvist, Noomi Rapace and Michalis Koutsogiannakis

Lisbeth Salander wordt zwaar gewond naar het ziekenhuis gebracht waarna zij wordt beschuldigd van een drievoudige moord. Blomkvist probeert politie en aanklagers te overtuigen van haar onschuld. Hij gaat op onderzoek uit naar het verleden van Lisbeth en ontdekt een samenzwering van het allerhoogste plan. Samen gaan ze op jacht naar gerechtigheid en de waarheid.

Lisbeth is recovering in a hospital and awaiting trial for three murders when she is released. Mikael must prove her innocence, but Lisbeth must be willing to share the details of her sordid experiences with the court. 

http://www.imdb.com/title/tt1343097

Complete with menu and extra's

------------------ Dutch Friends ------------------
You can find my Friends at: http://www.Film-Test.nl 
------ They got my dutchs subs ---- and more ------

General:

Complete name                    : VTS_02_1.VOB
Format                           : MPEG-PS
File size                        : 1 024 MiB
Duration                         : 32mn 8s
Overall bit rate                 : 4 455 Kbps

Video:

Format                           : MPEG Video
Format version                   : Version 2
Format profile                   : Main@Main
Format settings, BVOP            : Yes
Format settings, Matrix          : Default
Duration                         : 32mn 8s
Bit rate mode                    : Variable
Bit rate                         : 3 919 Kbps
Width                            : 720 pixels
Height                           : 576 pixels
Display aspect ratio             : 16:9
Frame rate                       : 25.000 fps
Standard                         : PAL
Color space                      : YUV
Chroma subsampling               : 4:2:0
Bit depth                        : 8 bits
Bits/(Pixel*Frame)               : 0.378
Stream size                      : 901 MiB (88%)

Audio:

Format                           : AC-3
Format/Info                      : Audio Coding 3
Mode extension                   : CM (complete main)
Duration                         : 32mn 7s
Bit rate mode                    : Constant
Bit rate                         : 448 Kbps
Channel(s)                       : 6 channels
Channel positions                : Front: L C R, Side: L R, LFE
Sampling rate                    : 48.0 KHz
Bit depth                        : 16 bits
Video delay                      : -6ms
Stream size                      : 103 MiB (10%)
Millenium 3/Cover/Millenium 3.jpg 73.5 KB
Millenium 3/Cover/www.Film-Test.nl.JPG 36.286 KB
Millenium 3/Millenium 3.iso 4.694 GB
Gathering some info...

Register and log in Isohunt and see no captcha anymore!

4000 symbols left
Hash d2561a9448e2199f482e09db239b15be5afe42dd

Related torrents for "Millenium 3, The Girl Who Kicked the Hornets Nest 2009 ISO Kla"

Torrent search:

2009