imdb
rating

6.5
Child's Play

Child's Play (1988)

Horror, Thriller

Full description
quality   dvdrip bd x264 hd fullhd h264

Childs Play 1988 DVDrip English Klam

Size 767.944 MB   1 seeders     Added 2011-09-23 15:40:26

Stream torrent
Starting‥ You need BitLord! Get it from BitLord.com
To download or stream you need BitLord. Visit them at BitLord.com
[img] image[/img]

With: Catherine Hicks, Chris Sarandon en de stem van Brad Dourif

De ellende begint als de kleine Andy ontdekt dat zijn pasgekregen pop 'Chucky' bezeten is door de ziel van een gruwelijke moordenaar. Een serie duistere en vooral ijzingwekkende moorden volgt. Dan probeert de pop bezit te nemen van Andy's geest.

Young Andy Barclay gets the doll he wanted. However, he did not know it was alive! 

http://www.imdb.com/title/tt0094862	

------------------ Dutch Friends ------------------
You can find my Friends at: http://www.Film-Test.nl 
------ They got my dutch subs ----- and more ------

General:

Complete name                    : Child's Play\Child's Play.avi
Format                           : AVI
Format/Info                      : Audio Video Interleave
File size                        : 732 MiB
Duration                         : 1h 23mn
Overall bit rate                 : 1 226 Kbps

Video:

Format                           : MPEG-4 Visual
Format profile                   : Simple@L3
Format settings, BVOP            : No
Format settings, QPel            : No
Format settings, GMC             : No warppoints
Format settings, Matrix          : Default (H.263)
Codec ID                         : XVID
Codec ID/Hint                    : XviD
Duration                         : 1h 23mn
Bit rate                         : 991 Kbps
Width                            : 652 pixels
Height                           : 352 pixels
Display aspect ratio             : 1.852
Frame rate                       : 25.000 fps
Color space                      : YUV
Chroma subsampling               : 4:2:0
Bit depth                        : 8 bits
Scan type                        : Progressive
Bits/(Pixel*Frame)               : 0.173
Stream size                      : 592 MiB (81%)
Writing library                  : XviD 1.1.2 (UTC 2006-11-01)

Audio:

Format                           : AC-3
Format/Info                      : Audio Coding 3
Format profile                   : Dolby Digital
Mode extension                   : CM (complete main)
Codec ID                         : 2000
Duration                         : 1h 23mn
Bit rate mode                    : Constant
Bit rate                         : 224 Kbps
Channel(s)                       : 2 channels
Channel positions                : Front: L R
Sampling rate                    : 48.0 KHz
Bit depth                        : 16 bits
Stream size                      : 134 MiB (18%)
Alignment                        : Aligned on interleaves
Interleave, duration             : 32 ms (0.80 video frame)
Interleave, preload duration     : 32 ms
Child's Play/Child's Play.avi 767.683 MB
Child's Play/Cover/Child's Play.jpg 188.659 KB
Child's Play/Cover/www.Film-Test.nl.JPG 36.286 KB
Gathering some info...

Register and log in Isohunt and see no captcha anymore!

4000 symbols left
Hash 78b46afd475cbafc7050c11848ce49215676dad3

Related torrents for "Childs Play 1988 DVDrip English Klam"

Torrent search:

dvdrip english 1988