rangam enduko emo video song hd 720p 5.1ch

Size 151.475 MB   0 seeders     Added 2011-09-24 02:44:27

Stream torrent
Starting‚Ä• You need BitLord! Get it from BitLord.com
To download or stream you need BitLord. Visit them at BitLord.com
General
Complete name : C:\\Users\\WINDOWS\\Downloads\\Enduko Emo Video song 720p 5.1ch ~pOdugu~\\Enduko Emo 720p 5.1ch ~pOdugu~.mp4
Format : MPEG-4
Format profile : Base Media
Codec ID : isom
File size : 144 MiB
Duration : 5mn 27s
Overall bit rate : 3 697 Kbps
Encoded date : UTC 2011-09-20 17:28:42
Tagged date : UTC 2011-09-20 17:28:42
Video
ID : 1
Format : AVC
Format/Info : Advanced Video Codec
Format profile : High@L4.1
Format settings, CABAC : Yes
Format settings, ReFrames : 4 frames
Format settings, GOP : M=2, N=32
Codec ID : avc1
Codec ID/Info : Advanced Video Coding
Duration : 5mn 27s
Bit rate mode : Variable
Bit rate : 3 251 Kbps
Maximum bit rate : 9 036 Kbps
Width : 1 280 pixels
Height : 544 pixels
Display aspect ratio : 2.35:1
Frame rate mode : Constant
Frame rate : 24.000 fps
Color space : YUV
Chroma subsampling : 4:2:0
Bit depth : 8 bits
Scan type : Progressive
Bits/(Pixel*Frame) : 0.195
Stream size : 127 MiB (88%)
Writing library : x264 core 116 r2074 2641b9e
Encoding settings : cabac=1 / ref=4 / deblock=1:-1:-1 / analyse=0x3:0x113 / me=umh / subme=7 / psy=1 / psy_rd=1.00:0.00 / mixed_ref=1 / me_range=16 / chroma_me=1 / trellis=2 / 8x8dct=1 / cqm=0 / deadzone=21,11 / fast_pskip=1 / chroma_qp_offset=-2 / threads=6 / sliced_threads=0 / nr=0 / decimate=1 / interlaced=0 / bluray_compat=0 / constrained_intra=0 / bframes=3 / b_pyramid=2 / b_adapt=2 / b_bias=0 / direct=3 / weightb=1 / open_gop=0 / weightp=2 / keyint=250 / keyint_min=24 / scenecut=40 / intra_refresh=0 / rc_lookahead=40 / rc=2pass / mbtree=1 / bitrate=3251 / ratetol=1.0 / qcomp=0.60 / qpmin=10 / qpmax=51 / qpstep=4 / cplxblur=20.0 / qblur=0.5 / vbv_maxrate=50000 / vbv_bufsize=50000 / nal_hrd=none / ip_ratio=1.40 / aq=1:1.00
Encoded date : UTC 2011-09-20 17:28:42
Tagged date : UTC 2011-09-20 17:28:43
Audio
ID : 2
Format : AC-3
Format/Info : Audio Coding 3
Mode extension : CM (complete main)
Codec ID : ac-3
Duration : 5mn 27s
Bit rate mode : Constant
Bit rate : 448 Kbps
Channel(s) : 6 channels
Channel positions : Front: L C R, Side: L R, LFE
Sampling rate : 48.0 KHz
Bit depth : 16 bits
Compression mode : Lossy
Stream size : 17.5 MiB (12%)
Encoded date : UTC 2011-09-20 17:28:43
Tagged date : UTC 2011-09-20 17:28:43 
Enduko Emo 720p 5.1ch ~pOdugu~.mp4 151.471 MB
Read Me.txt 3.352 KB
Gathering some info...

Register and log in Isohunt and see no captcha anymore!

4000 symbols left
Hash E69E435FD446CE4CE2042340A1A0B74A07BE96FA

Related torrents for "rangam enduko emo video song hd 720p 5.1ch"

Torrent search:

hd