imdb
rating

4.8
Sharpay's Fabulous Adventure

Sharpay's Fabulous Adventure (2011)

Comedy, Music, Family

Full description
quality   x264 bd dvdrip dvdr

Sharpays Fabulous Adventure 2011 DVDrip Dutch Klam

Size 1.534 GB   0 seeders     Added 2011-09-24 19:40:35

Stream torrent
Starting‥ You need BitLord! Get it from BitLord.com
10
To download or stream you need BitLord. Visit them at BitLord.com
[img] image[/img]

With: Ashley Tisdale, Bradley Steven Perry en Austin Butler

Nederlands gesproken,
Sharpay Evans krijgt te horen dat ze auditie mag doen voor een musical op Broadway. Ze reist af naar New York samen met haar hondje. Eenmaal aangekomen blijkt dat de auditie voor haar hond is, en niet voor Sharpay zelf. Zal haar droom in duigen vallen, of zal dit het begin zijn van een nieuw avontuur?

Dutch spoken,
Sharpay Evans travels to New York where she is pursuing a Broadway career but it's her dog who lands an acting gig first. 

http://www.imdb.com/title/tt1629440

------------------ Dutch Friends ------------------
You can find my Friends at: http://www.Film-Test.nl 
------ They got my dutch subs ----- and more ------

General:

Complete name                    : Sharpays Fabulous Adventure\Sharpays Fabulous Adventure.avi
Format                           : AVI
Format/Info                      : Audio Video Interleave
File size                        : 1.43 GiB
Duration                         : 1h 25mn
Overall bit rate                 : 2 381 Kbps

Video:

Format                           : MPEG-4 Visual
Format profile                   : Simple@L3
Format settings, BVOP            : No
Format settings, QPel            : No
Format settings, GMC             : No warppoints
Format settings, Matrix          : Default (H.263)
Codec ID                         : XVID
Codec ID/Hint                    : XviD
Duration                         : 1h 25mn
Bit rate                         : 1 987 Kbps
Width                            : 704 pixels
Height                           : 396 pixels
Display aspect ratio             : 16:9
Frame rate                       : 25.000 fps
Color space                      : YUV
Chroma subsampling               : 4:2:0
Bit depth                        : 8 bits
Scan type                        : Progressive
Bits/(Pixel*Frame)               : 0.285
Stream size                      : 1.19 GiB (83%)
Writing library                  : XviD 1.1.2 (UTC 2006-11-01)

Audio:

Format                           : AC-3
Format/Info                      : Audio Coding 3
Mode extension                   : CM (complete main)
Codec ID                         : 2000
Duration                         : 1h 25mn
Bit rate mode                    : Constant
Bit rate                         : 384 Kbps
Channel(s)                       : 6 channels
Channel positions                : Front: L C R, Side: L R, LFE
Sampling rate                    : 48.0 KHz
Bit depth                        : 16 bits
Stream size                      : 236 MiB (16%)
Alignment                        : Aligned on interleaves
Interleave, duration             : 32 ms (0.80 video frame)
Interleave, preload duration     : 256 ms
Sharpays Fabulous Adventure/Cover/Sharpay's Fabulous Adventure.jpg 67.605 KB
Sharpays Fabulous Adventure/Cover/www.Film-Test.nl.JPG 36.286 KB
Sharpays Fabulous Adventure/Sharpays Fabulous Adventure.avi 1.534 GB
Gathering some info...

Register and log in Isohunt and see no captcha anymore!

4000 symbols left
Hash b3b27ea1ede6adeeeb2e89fc1ac0ea1f1a9e5791

Related torrents for "Sharpays Fabulous Adventure 2011 DVDrip Dutch Klam"

Torrent search:

dvdrip german 2011