imdb
rating

5.7
Child's Play 2

Child's Play 2 (1990)

Drama, Horror

Full description
quality   dvdrip x264 hd bd fullhd h264

Childs Play 2 1990 DVDrip English Klam

Size 1.053 GB   10 seeders     Added 2011-09-25 20:42:32

Stream torrent
Starting‥ You need BitLord! Get it from 1BitLord.com
10
To download or stream you need BitLord. Visit them at BitLord.com
[img] image[/img]

With: Alex Vincent, Jenny Agutter en de stem van Brad Dourif

Het jongetje Andy woont bij zijn pleegouders, omdat zijn moeder psychiatrische hulp krijgt. Wanneer Chucky opnieuw in zijn leven komt, begint de nachtmerrie van vooraf aan. De moordzuchtige pop Chucky werd beroemd in de ijzingwekkende film Child's Play. De pop is een angstaanjagend figuurtje dat, onder de dekmantel van een pop, een ware duivel is.

Chuckie's back as the doll possessed by the soul of a serial killer, butchering all who stand in his way of possessing the body of a boy. 

http://www.imdb.com/title/tt0099253	

------------------ Dutch Friends ------------------
You can find my Friends at: http://www.Film-Test.nl 
------ They got my dutch subs ----- and more ------

General:

Complete name                    : Child's Play 2\Child's Play 2.avi
Format                           : AVI
Format/Info                      : Audio Video Interleave
File size                        : 1 004 MiB
Duration                         : 1h 20mn
Overall bit rate                 : 1 746 Kbps

Video:

Format                           : MPEG-4 Visual
Format profile                   : Simple@L3
Format settings, BVOP            : No
Format settings, QPel            : No
Format settings, GMC             : No warppoints
Format settings, Matrix          : Default (H.263)
Codec ID                         : XVID
Codec ID/Hint                    : XviD
Duration                         : 1h 20mn
Bit rate                         : 1 543 Kbps
Width                            : 652 pixels
Height                           : 352 pixels
Display aspect ratio             : 1.852
Frame rate                       : 25.000 fps
Color space                      : YUV
Chroma subsampling               : 4:2:0
Bit depth                        : 8 bits
Scan type                        : Progressive
Bits/(Pixel*Frame)               : 0.269
Stream size                      : 887 MiB (88%)
Writing library                  : XviD 1.1.2 (UTC 2006-11-01)

Audio:

Format                           : AC-3
Format/Info                      : Audio Coding 3
Mode extension                   : CM (complete main)
Codec ID                         : 2000
Duration                         : 1h 20mn
Bit rate mode                    : Constant
Bit rate                         : 192 Kbps
Channel(s)                       : 2 channels
Channel positions                : Front: L R
Sampling rate                    : 48.0 KHz
Bit depth                        : 16 bits
Stream size                      : 110 MiB (11%)
Alignment                        : Aligned on interleaves
Interleave, duration             : 32 ms (0.80 video frame)
Child's Play 2/Child's Play 2.avi 1.053 GB
Child's Play 2/Cover/Child's Play 2.jpg 239.326 KB
Child's Play 2/Cover/www.Film-Test.nl.JPG 36.286 KB
Gathering some info...

Register and log in Isohunt and see no captcha anymore!

4000 symbols left
Hash e3b31e83779e6ea7e557d9f1a1df4808fc3abede

Related torrents for "Childs Play 2 1990 DVDrip English Klam"

Torrent search:

dvdrip english 1990