imdb
rating

5.0
Abduction

Abduction (2011)

Action, Mystery, Thriller

Full description

Abduction.2011.TS.XviD

Size 734.747 MB   0 seeders     Added 2011-09-26 02:56:10

Stream torrent
Starting‥ You need BitLord! Get it from 1BitLord.com
To download or stream you need BitLord. Visit them at BitLord.com
Abduction.2011\r\n\r\n\r\n\r\nIMDB Link: \r\nhttp://www.imdb.com/title/tt1600195/\r\n\r\nDescription:\r\nWhen teenager Nathan Price (Taylor Lautner)\r\nfinds a picture of himself on a missing \r\npersons website, he discovers that the people\r\n(Jason Isaacs and Maria Bello) he thought \r\nwere his parents were really assigned to \r\nprotect him from the government. \r\nNathan and his neighbor/love interest \r\nKaren Lowell (Lily Collins) go on the run, \r\nbut he eventually decides to track down the \r\npeople responsible. \r\n\r\nMediaInfo:\r\nGeneral\r\nComplete name                    : Abduction.2011\r\nFormat                           : AVI\r\nFormat/Info                      : Audio Video Interleave\r\nFile size                        : 690 MB\r\nDuration                         : 1h 29mn\r\nOverall bit rate                 : 1 904 Kbps\r\n\r\nVideo\r\nID                               : 0\r\nFormat                           : MPEG-4 Visual\r\nFormat profile                   : Advanced Simple@L5\r\nFormat settings, BVOP            : Yes\r\nFormat settings, QPel            : No\r\nFormat settings, GMC             : No warppoints\r\nFormat settings, Matrix          : Default (H.263)\r\nMuxing mode                      : Packed bitstream\r\nCodec ID                         : XVID\r\nCodec ID/Hint                    : XviD\r\nDuration                         : 1h 29mn\r\nBit rate                         : 1 512 Kbps\r\nWidth                            : 720 pixels\r\nHeight                           : 304 pixels\r\nDisplay aspect ratio             : 2.35:1\r\nFrame rate                       : 23.976 fps\r\nResolution                       : 8 bits\r\nColorimetry                      : 4:2:0\r\nScan type                        : Progressive\r\nBits/(Pixel*Frame)               : 0.288\r\nStream size                      : 973 MiB (79%)\r\nWriting library                  : XviD 64\r\n\r\nAudio\r\nID                               : 1\r\nFormat                           : AC-3\r\nFormat/Info                      : Audio Coding 3\r\nFormat_Settings_ModeExtension    : CM (complete main)\r\nCodec ID                         : 2000\r\nDuration                         : 1h 29mn\r\nBit rate mode                    : Constant\r\nBit rate                         : 384 Kbps\r\nChannel(s)                       : 6 channels\r\nChannel positions                : Front: L C R, Side: L R, LFE\r\nSampling rate                    : 48.0 KHz\r\nStream size                      : 247 MiB (20%)\r\nAlignment                        : Aligned on interleaves\r\nInterleave, duration             : 64 ms (1.53 video frames)\r\nInterleave, preload duration     : 192 ms\r\nTitle                            : 6ch Englich
Abduction.2011.TS.XviD.avi 734.737 MB
Abduction.2011.TS.XviD.nfo 8.386 KB
README.txt 257 B
Gathering some info...

Register and log in Isohunt and see no captcha anymore!

4000 symbols left
Hash F6047A59F1B505B1945CF847C239902BCD8FAF3F

Related torrents for "Abduction.2011.TS.XviD"

Torrent search:

telesync 2011