imdb
rating

5.0
Abduction

Abduction (2011)

Action, Mystery, Thriller

Full description

Abduction (2011) Movie.TS BSrip

Size 740.753 MB   0 seeders     Added 2011-09-26 02:56:30

Stream torrent
Starting‥ You need BitLord! Get it from 1BitLord.com
To download or stream you need BitLord. Visit them at BitLord.com
Abduction (2011) TS Xvid\r\n\r\n\r\n\r\nIMDB Link: \r\nhttp://www.imdb.com/title/tt1600195/\r\n\r\nDescription:\r\nWhen teenager Nathan Price (Taylor Lautner)\r\n finds a picture of himself on a missing \r\npersons website, he discovers that the people\r\n (Jason Isaacs and Maria Bello) he thought \r\nwere his parents were really assigned to \r\nprotect him from the government. \r\nNathan and his neighbor/love interest \r\nKaren Lowell (Lily Collins) go on the run, \r\nbut he eventually decides to track down the \r\npeople responsible. \r\n\r\nMediaInfo:\r\nGeneral\r\nComplete name                    : Abduction (2011) TS Xvid\r\nFormat                           : AVI\r\nFormat/Info                      : Audio Video Interleave\r\nFile size                        : 690 MB\r\nDuration                         : 1h 29mn\r\nOverall bit rate                 : 1 904 Kbps\r\n\r\nVideo\r\nID                               : 0\r\nFormat                           : MPEG-4 Visual\r\nFormat profile                   : Advanced Simple@L5\r\nFormat settings, BVOP            : Yes\r\nFormat settings, QPel            : No\r\nFormat settings, GMC             : No warppoints\r\nFormat settings, Matrix          : Default (H.263)\r\nMuxing mode                      : Packed bitstream\r\nCodec ID                         : XVID\r\nCodec ID/Hint                    : XviD\r\nDuration                         : 1h 29mn\r\nBit rate                         : 1 512 Kbps\r\nWidth                            : 720 pixels\r\nHeight                           : 304 pixels\r\nDisplay aspect ratio             : 2.35:1\r\nFrame rate                       : 23.976 fps\r\nResolution                       : 8 bits\r\nColorimetry                      : 4:2:0\r\nScan type                        : Progressive\r\nBits/(Pixel*Frame)               : 0.288\r\nStream size                      : 973 MiB (79%)\r\nWriting library                  : XviD 64\r\n\r\nAudio\r\nID                               : 1\r\nFormat                           : AC-3\r\nFormat/Info                      : Audio Coding 3\r\nFormat_Settings_ModeExtension    : CM (complete main)\r\nCodec ID                         : 2000\r\nDuration                         : 1h 29mn\r\nBit rate mode                    : Constant\r\nBit rate                         : 384 Kbps\r\nChannel(s)                       : 6 channels\r\nChannel positions                : Front: L C R, Side: L R, LFE\r\nSampling rate                    : 48.0 KHz\r\nStream size                      : 247 MiB (20%)\r\nAlignment                        : Aligned on interleaves\r\nInterleave, duration             : 64 ms (1.53 video frames)\r\nInterleave, preload duration     : 192 ms\r\nTitle                            : 6ch Englich
Abduction (2011) Movie.TS BSrip.avi 740.687 MB
RELEASE.nfo 25.825 KB
Abduction (2011) Movie.TS BSrip.nfo 22.769 KB
Gathering some info...

Register and log in Isohunt and see no captcha anymore!

4000 symbols left
Hash 02047433004EA13F050749C5786DA1E600890A86

Related torrents for "Abduction (2011) Movie.TS BSrip"

Torrent search:

telesync 2011