Beat the World 2011 DVDrip English Klam

Size 1.684 GB   0 seeders     Added 2011-09-26 20:41:10

Stream torrent
Starting‚Ä• You need BitLord! Get it from BitLord.com
To download or stream you need BitLord. Visit them at BitLord.com
[img] image[/img]

With: Tyrone Brown, Mishael Morgan en Nikki Grant

Drie dansgroepen nemen het tegen elkaar in een internationale competitie. Het gaat er heel hard en dikwijls emotioneel aan toe, want iedereen is erg gedreven om te winnen. Verliezen is voor geen van de deelnemers een optie. Ze bereiden zich al zo goed als heel hun leven voor om kampioen te worden en gaan dan er ook voluit voor om hun droom werkelijkheid te maken.

Three dance crews prepare to do battle at the international Beat the World competition in Detroit. In the final showdown to become world champions lifelong hopes, dreams and even lives, are at stake. 

http://www.imdb.com/title/tt1568139

------------------ Dutch Friends ------------------
You can find my Friends at: http://www.Film-Test.nl 
------ They got my dutch subs ----- and more ------

General:

Complete name                    : Beat the World\Beat the World.avi
Format                           : AVI
Format/Info                      : Audio Video Interleave
File size                        : 1.57 GiB
Duration                         : 1h 31mn
Overall bit rate                 : 2 459 Kbps

Video:

Format                           : MPEG-4 Visual
Format profile                   : Simple@L3
Format settings, BVOP            : No
Format settings, QPel            : No
Format settings, GMC             : No warppoints
Format settings, Matrix          : Default (H.263)
Codec ID                         : XVID
Codec ID/Hint                    : XviD
Duration                         : 1h 31mn
Bit rate                         : 2 001 Kbps
Width                            : 720 pixels
Height                           : 304 pixels
Display aspect ratio             : 2.35:1
Frame rate                       : 23.976 fps
Color space                      : YUV
Chroma subsampling               : 4:2:0
Bit depth                        : 8 bits
Scan type                        : Progressive
Bits/(Pixel*Frame)               : 0.381
Stream size                      : 1.28 GiB (81%)
Writing library                  : XviD 1.1.2 (UTC 2006-11-01)

Audio:

Format                           : AC-3
Format/Info                      : Audio Coding 3
Mode extension                   : CM (complete main)
Codec ID                         : 2000
Duration                         : 1h 31mn
Bit rate mode                    : Constant
Bit rate                         : 448 Kbps
Channel(s)                       : 6 channels
Channel positions                : Front: L C R, Side: L R, LFE
Sampling rate                    : 48.0 KHz
Bit depth                        : 16 bits
Stream size                      : 292 MiB (18%)
Alignment                        : Aligned on interleaves
Interleave, duration             : 32 ms (0.77 video frame)
Interleave, preload duration     : 352 ms
Beat the World/Beat the World.avi 1.684 GB
Beat the World/Cover/Beat the World.jpg 65.229 KB
Beat the World/Cover/www.Film-Test.nl.JPG 36.286 KB
Gathering some info...

Register and log in Isohunt and see no captcha anymore!

4000 symbols left
Hash 5462c9f3b0e82dab9a04e76993208201885adfbb

We have tons of cool stuff like this:

Torrent search:

dvdrip english 2011