imdb
rating

6.8
The Inbetweeners Movie

The Inbetweeners Movie (2011)

Comedy

Full description
quality   dvdrip telesync dvdr

The.Inbetweeners.HQ.2011-MYSTIC

Size 774.183 MB   0 seeders     Added 2011-09-27 03:01:43

Stream torrent
Starting‥ You need BitLord! Get it from BitLord.com
To download or stream you need BitLord. Visit them at BitLord.com
The Inbetweeners Movie (2011)\r\nPlot:\r\nThe boys - Will, Simon, Jay and Neil\r\n- have finished their exams and are \r\nabout to leave school. Within their \r\nfinal week, Carli dumps Simon, Jay's \r\ngrandfather dies and Will's father \r\nreveals he's married his mistress. \r\nDepressed, the boys decide to go on \r\nholiday and Neil books them on a trip \r\nto Malia, Crete.\r\n\r\n\r\nGeneral\r\nComplete name                    : D:\\Vídeos\\The Inbetweeners Movie (2011)\r\nFormat                           : XVID\r\nFormat profile                   : Base Media / Version 2\r\nCodec ID                         : mp42\r\nFile size                        : 963 MiB\r\nDuration                         : 1h 36mn\r\nOverall bit rate                 : 1 398 Kbps\r\nEncoded date                     : UTC 2011-09-18 21:58:59\r\nTagged date                      : UTC 2011-09-18 23:42:39\r\n\r\nVideo\r\nID                               : 1\r\nFormat                           : AVC\r\nFormat/Info                      : Advanced Video Codec\r\nFormat profile                   : Main@L3.0\r\nFormat settings, CABAC           : Yes\r\nFormat settings, ReFrames        : 2 frames\r\nCodec ID                         : avc1\r\nCodec ID/Info                    : Advanced Video Coding\r\nDuration                         : 1h 36mn\r\nBit rate mode                    : Variable\r\nBit rate                         : 1 201 Kbps\r\nMaximum bit rate                 : 2 818 Kbps\r\nWidth                            : 720 pixels\r\nHeight                           : 480 pixels\r\nDisplay aspect ratio             : 4:3\r\nFrame rate mode                  : Constant\r\nFrame rate                       : 29.970 fps\r\nStandard                         : NTSC\r\nColor space                      : YUV\r\nChroma subsampling               : 4:2:0\r\nBit depth                        : 8 bits\r\nScan type                        : Progressive\r\nBits/(Pixel*Frame)               : 0.116\r\nStream size                      : 700 MiB (86%)\r\nLanguage                         : English\r\nEncoded date                     : UTC 2011-09-18 21:59:01\r\nTagged date                      : UTC 2011-09-18 23:42:39\r\nMaterial_Duration                : 5779507\r\nMaterial_StreamSize              : 867975964\r\nMaterial_FrameCount              : 173212\r\n\r\nAudio\r\nID                               : 2\r\nFormat                           : AC-3\r\nFormat/Info                      : Audio Coding 3\r\nMode extension                   : CM (complete main)\r\nCodec ID                         : ac-3\r\nDuration                         : 1h 36mn\r\nBit rate mode                    : Constant\r\nBit rate                         : 192 Kbps\r\nChannel(s)                       : 2 channels\r\nChannel positions                : Front: L R\r\nSampling rate                    : 48.0 KHz\r\nBit depth                        : 16 bits\r\nCompression mode                 : Lossy\r\nStream size                      : 132 MiB (14%)\r\nTitle                            : Inglês\r\nLanguage                         : English\r\nEncoded date                     : UTC 2011-09-18 21:59:01\r\nTagged date                      : UTC 2011-09-18 23:42:39\r\nMaterial_Duration                : 5779456
The.Inbetweeners.HQ.2011-MYSTIC.avi 774.165 MB
The.Inbetweeners.HQ.2011-MYSTIC.nfo 12.527 KB
R3LEASE.nfo 5.321 KB
Gathering some info...

Register and log in Isohunt and see no captcha anymore!

4000 symbols left
Hash 6FFD502F702D4E3346A8FFDAABFE16172CD65607

Related torrents for "The.Inbetweeners.HQ.2011-MYSTIC"

Torrent search:

2011