imdb
rating

6.8
The Inbetweeners Movie

The Inbetweeners Movie (2011)

Comedy

Full description
quality   dvdrip telesync dvdr

The.Inbetweeners.HQ.2011.DVD

Size 771.084 MB   0 seeders     Added 2011-09-27 03:02:43

Stream torrent
Starting‥ You need BitLord! Get it from BitLord.com
To download or stream you need BitLord. Visit them at BitLord.com
The Inbetweeners Movie (2011)\r\n\r\n\r\n\r\nIMDB Link: \r\nhttp://www.imdb.com/title/tt1716772/\r\n\r\nDescription:\r\nFour socially troubled 18-year-olds from the s\r\nouth of England go on holiday to Malia. \r\n\r\nMediaInfo:\r\nGeneral\r\nComplete name                    : The Inbetweeners Movie (2011)\r\nFormat                           : AVI\r\nFormat/Info                      : Audio Video Interleave\r\nFile size                        : 700 MB\r\nDuration                         : 1h 29mn\r\nOverall bit rate                 : 1 904 Kbps\r\n\r\nVideo\r\nID                               : 0\r\nFormat                           : MPEG-4 Visual\r\nFormat profile                   : Advanced Simple@L5\r\nFormat settings, BVOP            : Yes\r\nFormat settings, QPel            : No\r\nFormat settings, GMC             : No warppoints\r\nFormat settings, Matrix          : Default (H.263)\r\nMuxing mode                      : Packed bitstream\r\nCodec ID                         : XVID\r\nCodec ID/Hint                    : XviD\r\nDuration                         : 1h 29mn\r\nBit rate                         : 1 512 Kbps\r\nWidth                            : 720 pixels\r\nHeight                           : 304 pixels\r\nDisplay aspect ratio             : 2.35:1\r\nFrame rate                       : 23.976 fps\r\nResolution                       : 8 bits\r\nColorimetry                      : 4:2:0\r\nScan type                        : Progressive\r\nBits/(Pixel*Frame)               : 0.288\r\nStream size                      : 973 MiB (79%)\r\nWriting library                  : XviD 64\r\n\r\nAudio\r\nID                               : 1\r\nFormat                           : AC-3\r\nFormat/Info                      : Audio Coding 3\r\nFormat_Settings_ModeExtension    : CM (complete main)\r\nCodec ID                         : 2000\r\nDuration                         : 1h 29mn\r\nBit rate mode                    : Constant\r\nBit rate                         : 384 Kbps\r\nChannel(s)                       : 6 channels\r\nChannel positions                : Front: L C R, Side: L R, LFE\r\nSampling rate                    : 48.0 KHz\r\nStream size                      : 247 MiB (20%)\r\nAlignment                        : Aligned on interleaves\r\nInterleave, duration             : 64 ms (1.53 video frames)\r\nInterleave, preload duration     : 192 ms\r\nTitle                            : 6ch Englich
The.Inbetweeners.HQ.2011.DVD.avi 771.047 MB
RELEASE.nfo 30.947 KB
The.Inbetweeners.HQ.2011.DVD.nfo 5.321 KB
Gathering some info...

Register and log in Isohunt and see no captcha anymore!

4000 symbols left
Hash EADC11504AC1E7B8EB3D663E89ADFE6514C866D6

Related torrents for "The.Inbetweeners.HQ.2011.DVD"

Torrent search:

2011