imdb
rating

8.0
District 9

District 9 (2009)

Action, Science Fiction, Thriller

Full description

District 9 (Hindi) - Blu-Ray - 1080p - x264 - AC3 - [AD]

Size 2.757 GB   0 seeders     Added 2011-09-28 02:49:54

Stream torrent
Starting‥ You need BitLord! Get it from BitLord.com
To download or stream you need BitLord. Visit them at BitLord.com
[img=cover]image[/img]\r\n\r\n[img=ripper]image[/img]\r\n\r\n[img=info]image[/img]\r\n\r\n[font=\"Comic Sans MS\"][i][b]Release : District 9 (Hindi) - Blu-Ray - 1080p - x264 - AC3 - [AD]\r\n\r\nRelease Date: 11 September 2009 (India)\r\n\r\nRelease Length: 1h 52mn\r\n\r\nTagline : You are not welcome here. \r\n\r\nStoryline: In 1982, a massive star ship bearing a bedraggled alien population, nicknamed \"The Prawns,\" appeared over Johannesburg, South Africa. Twenty-eight years later, the initial welcome by the human population has faded. The refugee camp where the aliens were located has deteriorated into a militarized ghetto called District 9, where they are confined and exploited in squalor. In 2010, the munitions corporation, Multi-National United, is contracted to forcibly evict the population with operative Wikus van der Merwe in charge. In this operation, Wikus is exposed to a strange alien chemical and must rely on the help of his only two new 'Prawn' friends.[/b][/i][/font]\r\n\r\n[img=cast]image[/img]\r\n\r\n[font=\"Comic Sans MS\"][i][b]Sharlto Copley 	... 	Wikus Van De Merwe\r\nJason Cope 	... 	Grey Bradnam - UKNR Chief Correspondent / Christopher Johnson\r\nNathalie Boltt 	... 	Sarah Livingstone - Sociologist\r\nSylvaine Strike 	... 	Dr Katrina McKenzie\r\nElizabeth Mkandawie 	... 	Interviewee\r\nJohn Sumner 	... 	Les Feldman - MIL Engineer\r\nWilliam Allen Young 	... 	Dirk Michaels\r\nGreg Melvill-Smith 	... 	Interviewer\r\nNick Blake 	... 	Francois Moraneu - CIV Engineer Team\r\nMorena Busa Sesatsa 	... 	Interviewee\r\nThemba Nkosi 	... 	Interviewee\r\nMzwandile Nqoba 	... 	Interviewee\r\nBarry Strydom 	... 	Interviewee\r\nJed Brophy 	... 	James Hope - Police Officer\r\nLouis Minnaar 	... 	Piet Smit  \r\n\r\n\r\n[img=\"box office\"]image[/img]\r\n\r\nBudget:$30,000,000 (estimated)\r\nOpening Weekend:$37,354,308 (USA) (16 August 2009) (3049 Screens)\r\nGross:$115,502,313 (USA) (25 October 2009)  \r\n\r\n[img=plot]image[/img]\r\n\r\nTitle                            : District 9 (Hindi) - Blu-Ray - 1080p - x264 - AC3 - [AD]\r\nGenre                            : Action | Drama | Sci-Fi | Thriller\r\nPlot Keys Word                   : Alien | Prawn | Ghetto | Refugee Camp | Refugee  \r\nIdbm Link                        : http://www.imdb.com/title/tt1136608/\r\nOfficial Site                    : http://www.d-9.com/\r\nUser Rating                      : (207,158 votes) 1,111 reviews | Critics: 409 reviews Metascore: 81/100 \r\nYear                             : 11 September 2009 (India)\r\nDirecter                         : Neill Blomkamp\r\nwriter                           : Neill Blomkamp, Terri Tatchell\r\nLanguages                        : Hindi,English\r\nFormat                           : Matroska\r\nFormat version                   : Version 2\r\nFile size                        : 2.47 GiB\r\nDuration                         : 1h 52mn\r\nOverall bit rate                 : 3 146 Kbps\r\nFormat                           : AVC\r\nFormat/Info                      : Advanced Video Codec\r\nFormat profile                   : Baseline@L4.1\r\nDuration                         : 1h 52mn\r\nBit rate                         : 2 827 Kbps\r\nWidth                            : 1 920 pixels\r\nHeight                           : 1 024 pixels\r\nDisplay aspect ratio             : 1.875\r\nColor space                      : YUV\r\nChroma subsampling               : 4:2:0\r\nBit depth                        : 8 bits\r\nScan type                        : Progressive\r\nBits/(Pixel*Frame)               : 0.060\r\nStream size                      : 2.22 GiB (90%)\r\nTitle                            : Ripp ~ Armaan\r\nLanguage                         : English\r\nFormat                           : AC-3\r\nFormat/Info                      : Audio Coding 3\r\nMode extension                   : CM (complete main)\r\nMuxing mode                      : Header stripping\r\nCodec ID                         : A_AC3\r\nDuration                         : 1h 52mn\r\nBit rate mode                    : Constant\r\nBit rate                         : 256 Kbps\r\nChannel(s)                       : 6 channels\r\nChannel positions                : Front: L C R, Side: L R, LFE\r\nSampling rate                    : 48.0 KHz\r\nBit depth                        : 16 bits\r\nCompression mode                 : Lossy\r\nStream size                      : 206 MiB (8%)\r\nTitle                            : Ripp By ~ Armaan (HINDI)\r\nLanguage                         : Hindi\r\nFormat                           : UTF-8\r\nCodec ID                         : S_TEXT/UTF8\r\nCodec ID/Info                    : UTF-8 Plain Text\r\nTitle                            : Ripp By ~ Armaan - English\r\nLanguage                         : English\r\nFormat                           : UTF-8\r\nCodec ID                         : S_TEXT/UTF8\r\nCodec ID/Info                    : UTF-8 Plain Text\r\nTitle                            : Ripp By ~ Armaan-Estonian\r\nLanguage                         : Estonian\r\nFormat                           : UTF-8\r\nCodec ID                         : S_TEXT/UTF8\r\nCodec ID/Info                    : UTF-8 Plain Text\r\nTitle                            : Ripp By ~ Armaan- Portuguese\r\nLanguage                         : Portuguese\r\nFormat                           : UTF-8\r\nCodec ID                         : S_TEXT/UTF8\r\nCodec ID/Info                    : UTF-8 Plain Text\r\nTitle                            : Ripp By ~ Armaan - Spanish\r\nLanguage                         : Spanish\r\nRipper                           : ARMAAN[/b][/i][/font]\r\n\r\n[img=\"screen shots\"]image[/img]\r\n[img=1aa]image[/img]\r\n[img=2aa]image[/img]\r\n[img=3aa]image[/img]\r\n[img=4aa]image[/img]\r\n[img=5aa]image[/img]\r\n[img=6aa]image[/img]\r\n[img=7aa]image[/img]\r\n[img=8aa]image[/img]\r\n[img=9aa]image[/img]\r\n[img=10aa]image[/img]\r\n[img=11aa]image[/img]\r\n[img=12aa]image[/img]\r\n\r\n[url= http://www.facebook.com/groups/264558926896468/][img]image[/img][/url]\r\n\r\n[color=red][size=5][center][b][url= http://www.mediafire.com/?865xxe8j6hyo64i]Sample[/url][/b][/center][/size][/color]
District 9 (Hindi) - Blu-Ray - 1080p - x264 - AC3 - [AD].mkv 2.648 GB
District 9 (Hindi) [Sample] - Blu-Ray - 1080p - x264 - AC3 - [AD].mkv 69.313 MB
Join us on Facebook.txt 120 B
Gathering some info...

Register and log in Isohunt and see no captcha anymore!

4000 symbols left
Hash 8613DCC5AFD76F1764197015C71A9165C08A947F

Related torrents for "District 9 (Hindi) - Blu-Ray - 1080p - x264 - AC3 - [AD]"

Torrent search:

x264 hindi fullhd bd