imdb
rating

 
Home

Home (2016)

Horror, Drama, Family

Full description
quality   dvdrip x264 dvdr hdtv

Way Back Home ITT (2011) DVDRip Pinoy Tagalog XviD English Softsub seadragon

Size 893.303 MB   0 seeders     Added 2011-10-01 01:37:43

Stream torrent
Starting‥ You need BitLord! Get it from BitLord.com
10
To download or stream you need BitLord. Visit them at BitLord.com
Way Back Home [pinoy-koleksyon.net] (2011) DVDRip Pinoy Tagalog XviD English Softsub [seadragon]


[img]image[/img]


INFO

General:

Format : AVI
Format/Info : Audio Video Interleave
File size : 848 MiB
Duration : 1h 45mn
Overall bit rate : 1 127 Kbps
http://www.imdb.com/title/tt2018166/



Movie proudly from ITT (Indays Tagalog Tracker - Pinoy Koleksyon) - a great filipino tracker!



Video:

ID : 0
Format : MPEG-4 Visual
Format profile : Advanced Simple@L5
Format settings, BVOP : 1
Format settings, QPel : No
Format settings, GMC : No warppoints
Format settings, Matrix : Default (MPEG)
Muxing mode : Packed bitstream
Codec ID : XVID
Codec ID/Hint : XviD
Duration : 1h 45mn
Bit rate : 989 Kbps
Width : 608 pixels
Height : 376 pixels
Display aspect ratio : 1.617
Frame rate : 23.976 fps
Color space : YUV
Chroma subsampling : 4:2:0
Bit depth : 8 bits
Scan type : Progressive
Compression mode : Lossy
Bits/(Pixel*Frame) : 0.181
Stream size : 745 MiB (88%)
Writing library : XviD 1.2.1 (UTC 2008-12-04)

Audio:

ID : 1
Format : MPEG Audio
Format version : Version 1
Format profile : Layer 3
Mode : Joint stereo
Mode extension : MS Stereo
Codec ID : 55
Codec ID/Hint : MP3
Duration : 1h 45mn
Bit rate mode : Constant
Bit rate : 128 Kbps
Channel(s) : 2 channels
Sampling rate : 48.0 KHz
Compression mode : Lossy
Stream size : 96.4 MiB (11%)
Alignment : Aligned on interleaves
Interleave, duration : 42 ms (1.00 video frame)
Interleave, preload duration : 504 ms
Writing library : LAME3.97







Movie proudly from ITT (Indays Tagalog Tracker - Pinoy Koleksyon) - a great filipino tracker!





PLOT

For 12 years, Jessica Santiago (Julia Montes) has been dealing with the pain and guilt of losing her sister Joanna. Despite her efforts to please her mother Amy (Agot 

Isidro), Jessica knows that the emptiness in her mother’s heart can only be filled by Joanna’s return. Unbeknownst to the Santiagos, Joanna has lived to become Ana 

Bartolome (Kathryn Bernardo), the daughter of simple fisher folk.

When Ana is finally found, shr tries to reconnect with her family, especially with Jessica but Ana’s return worsens Jessica’s feeling of abandonment. Jessica feels less 

loved by Amy while Ana feels like she has to win Jessica’s approval.

After growing tensions between the two sisters result in a competition that endangers the life of one , the family is forced to confront the possibility of being torn 

apart again.

Way Back Home is about how no amount of time, distance, and loss can tear apart a family brought together by love and renewed forgiveness.



CAST

Kathryn Bernardo, Julia Montes, Agot Isidro, Tonton Gutierrez, Sam Concepcion, Enrique Gil, Lotlot de Leon



SCREENS
[img]image[/img]



[color=#0000ff][b]Movie proudly from ITT (Indays Tagalog Tracker - Pinoy Koleksyon) - a great filipino tracker![/b][/color]
pinoy-koleksyon.net for free PINOY MOVIES.txt 19 B
Way Back Home (2011) [pinoy-koleksyon.net] (2011) DVDRip XviD English Softsub [SeaDragon].sub 3.768 MB
Way Back Home (2011) [pinoy-koleksyon.net] (2011) DVDRip XviD English Softsub [SeaDragon].idx 55.336 KB
Gathering some info...

Register and log in Isohunt and see no captcha anymore!

4000 symbols left
Hash B580237D2EB78871C1CF3E9F9FEF14F1E80B07EC

Related torrents for "Way Back Home ITT (2011) DVDRip Pinoy Tagalog XviD English Softsub seadragon"

Torrent search:

dvdrip english 2011