MNV ZDF-History - Junger Ruhm und frueher Tod dtv h264 mp4 [mnvv2 info]

Size 478.556 MB   0 seeders     Added 2011-10-01 02:54:37

Stream torrent
Starting‥ You need BitLord! Get it from 1BitLord.com
To download or stream you need BitLord. Visit them at BitLord.com
ZDF-History: Junger Ruhm und früher Tod\r\nVon Mozart bis Amy Winehouse\r\n\r\nModeration: Guido Knopp\r\n\"Wen die Götter lieben, lassen sie jung sterben\" - schon die alten Römer wussten, dass ein früher Tod den Ruhm beträchtlich steigern kann. \"ZDF-History\" mit historischen Beispielen von Mozart über James Dean bis hin zur Sängerin Amy Winehouse.\r\n\r\nUm früh verstorbene Stars aus der Welt des Sports, des Films und der Musik entsteht mitunter ein Mythos, den es bei längerem Schaffen wohl nicht gegeben hätte.\r\n\r\nDer frühe Drogentod\r\n1959 stirbt die große Jazzsängerin Billie Holiday mit nur 44 Jahren. Vorbild oder warnendes Beispiel für Amy Winehouse? Oft war Amy mit Billie Holiday verglichen worden - wegen ihrer Stimme. Amys letzter Auftritt: ein Desaster. Die Frau mit der Jahrhundertstimme bringt kaum keinen geraden Ton heraus. Ihre Fans buhen sie aus. Kurze Zeit später ist sie tot. Gestorben mutmaßlich an Drogenmißbrauch.\r\nDer frühe Drogentod - für Musiker der 60er und frühen 70er Jahre fast schon die Regel. Mit 27 sterben Brian Jones, Jimi Hendrix, Jim Morrison und Janis Joplin. Bis heute sind sie Legenden geblieben.\r\n\r\nSchnelle Autos\r\nNur drei Mal vor der Kamera in Hollywood - und doch Legende ohne Verfallsdatum: James Dean. Idol einer ganzen Generation, die den Zwängen der 50er zu entkommen sucht. \"Jenseits von Eden\" und in \"Denn sie wissen nicht, was sie tun\" - bis heute Klassiker dank des intensiven Schauspiels des jungen Dean. Ein schnelles Leben, ein schneller Tod: Mit seinem Porsche hat er einen tödlichen Unfall. Der tote James Dean erhält mehr Fanpost als der lebende. Heute wäre er 77.\r\n\r\n\"Mein Freund, der Baum, ist tot\" - ein Schlagerklassiker bis heute. Ende der 60er Jahre erlebt Doris Treitz im Zeitraffer eine Karriere, für die andere Jahre brauchen. Als Künstlernamen wählt sie den Vornamen ihres Sohnes und hängt ein \"a\" dran: Alexandra. Mit der Mischung aus französischem Chanson und russischer Folklore trifft sie den Nerv der Zeit. Am Morgen des 31. Juli 69 fährt Alexandra mit ihrem Mercedes von Hamburg aus Richtung Sylt. Bei Tellingstedt ignoriert sie ein Stopp-Schild und kollidiert mit einem Lastzug. Mit 27 Jahren stirbt die Sängerin, ebenso ihre Mutter. Der sechsjährige Alexander überlebt.\r\n\r\nNicht immer folgt der Ruhm\r\nFlorence Griffith Joyner, genannt Flo-Jo: eine Weltrekord-Sprinterin der USA. Die Dopingtests sind negativ, der Verdacht bleibt: Experten wundern sich: Die attraktive Frau hat Muskeln, von denen manch männlicher Leichtathlet nur träumen kann. 1998, völlig unerwartet, stirbt Florence Griffith Joyner - mit nur 38 Jahren. Bis heute ist keine Frau schneller gelaufen als Florence Griffith Joyner Dennoch wird sie nicht zur Legende.\r\nTragisch der Tod des Sportlers Robert Enke. Sein plötzlicher Selbstmord wird 2009 zum Medienereignis. Fünf deutsche Fernsehsender übertragen die Trauerfeier live. Knapp 40.000 Fans trauern im Stadion. Nominiert als Nationaltorwart für die WM 2010 war Enke auf dem Weg nach ganz oben, so schien es. Sein früher Tod macht ihn nicht zur Legende, doch er stößt in Deutschland eine Diskussion an: über Depression als \"Volkskrankheit\".\r\n\r\nGeneral\r\nComplete name                    : ZDF-History.-.Junger.Ruhm.und.frueher.Tod.dtv.h264.mp4\r\nFormat                           : MPEG-4\r\nFormat profile                   : Base Media / Version 2\r\nCodec ID                         : mp42\r\nFile size                        : 456 MiB\r\nDuration                         : 42mn 49s\r\nOverall bit rate                 : 1 490 Kbps\r\nEncoded date                     : UTC 2011-09-25 01:32:31\r\nTagged date                      : UTC 2011-09-25 01:33:27\r\n\r\nVideo\r\nID                               : 1\r\nFormat                           : AVC\r\nFormat/Info                      : Advanced Video Codec\r\nFormat profile                   : Baseline@L3.0\r\nFormat settings, CABAC           : No\r\nFormat settings, ReFrames        : 2 frames\r\nCodec ID                         : avc1\r\nCodec ID/Info                    : Advanced Video Coding\r\nDuration                         : 42mn 49s\r\nBit rate mode                    : Variable\r\nBit rate                         : 1 294 Kbps\r\nWidth                            : 720 pixels\r\nHeight                           : 400 pixels\r\nDisplay aspect ratio             : 16:9\r\nFrame rate mode                  : Constant\r\nFrame rate                       : 25.000 fps\r\nColor space                      : YUV\r\nChroma subsampling               : 4:2:0\r\nBit depth                        : 8 bits\r\nScan type                        : Progressive\r\nBits/(Pixel*Frame)               : 0.180\r\nStream size                      : 396 MiB (87%)\r\nTitle                            : Apple Video Mediensteuerung\r\nEncoded date                     : UTC 2011-09-25 01:32:27\r\nTagged date                      : UTC 2011-09-25 01:33:27\r\nColor primaries                  : BT.601-6 525, BT.1358 525, BT.1700 NTSC, SMPTE 170M\r\nTransfer characteristics         : BT.709-5, BT.1361\r\nMatrix coefficients              : BT.601-6 525, BT.1358 525, BT.1700 NTSC, SMPTE 170M\r\n\r\nAudio\r\nID                               : 2\r\nFormat                           : AAC\r\nFormat/Info                      : Advanced Audio Codec\r\nFormat profile                   : LC\r\nCodec ID                         : 40\r\nDuration                         : 42mn 48s\r\nBit rate mode                    : Constant\r\nBit rate                         : 192 Kbps\r\nChannel(s)                       : 2 channels\r\nChannel positions                : Front: L R\r\nSampling rate                    : 48.0 KHz\r\nCompression mode                 : Lossy\r\nStream size                      : 58.8 MiB (13%)\r\nTitle                            : Apple Ton Mediensteuerung\r\nLanguage                         : German\r\nEncoded date                     : UTC 2011-09-25 01:32:27\r\nTagged date                      : UTC 2011-09-25 01:33:27
ZDF-History.-.Junger.Ruhm.und.frueher.Tod.dtv.h264.mp4 478.556 MB
Gathering some info...

Register and log in Isohunt and see no captcha anymore!

4000 symbols left
Hash C2489DEAA8CF67ABDA3B1C8CFF44FEC6DD0884A7

We have tons of cool stuff like this:

Torrent search:

h264