MNV Macao - Insel des Gluecks dtv h264 mp4 [mnvv2 info]

Size 182.868 MB   0 seeders     Added 2011-10-01 02:54:41

Stream torrent
Starting‥ You need BitLord! Get it from 1BitLord.com
To download or stream you need BitLord. Visit them at BitLord.com
Schätze der Welt - Erbe der Menschheit - Macau - Insel des Glücks - China\r\nEin Film von Elke Werry\r\n\r\nDie Halbinsel Macau im südchinesischen Meer hat die Form einer Krabbe. In der chinesischen Symbolik ist dies ein deutliches Zeichen für Glück. Seit Macau besteht, haben hier Menschen ihr Leben und Vermögen auf's Spiel gesetzt. Früher waren es Seefahrer und Abenteurer, Missionare und Geschäftsleute, heute sind es Glücksritter und Spieler. Das Roulette-Rad steht in Macau nie still, die Stadt gilt als das Las Vegas von Asien.\r\n\r\nAls Anfang des 16. Jahrhunderts Seefahrer aus Portugal im Perlflussdelta ankerten, fanden sie nur eine kleine Siedlung, in der Fischer zu ihrer Glücksgöttin A-Ma beteten. Auf fremdem, südchinesischem Boden richteten sie einen Stützpunkt ein. Es war der erste in Fernost. Mandarine aus Kanton genehmigten die Niederlassung der Portugiesen, gaben ihnen einen exklusiven Pachtvertrag. Bald wuchs der kleine portugiesische Handelsstützpunkt zu einer Drehscheibe zwischen Ost und West, in der Seide und Silber, Sandelholz und Porzellan in alle Welt verschifft wurden. Macau wurde Sammelpunkt für exotische Waren, aber auch für Missionare und abendländische Kultur.\r\n\r\n1999 wurde Macau an China zurückgegeben, ist wie die Schwesterstadt Hongkong wirtschaftliche Sonderverwaltungszone. Längst hatte sich die portugiesische Enklave zu einer chinesischen Metropole entwickelt, dicht besiedelt und modern. Aber Macau ist anders als andere chinesische Großstädte. Es hat das Erbe des Seefahrer-Reiches Portugal erhalten: prachtvolle Händlervillen, schmucke Barockkirchen, abendländische Kultur und Lebensart. Das Geschäft mit dem Glücksspiel, das schon 1847 legalisiert wurde, hat dazu beigetragen, die glanzvolle Vergangenheit zu pflegen. Der Reiz der Stadt besteht in dem Neben- und Miteinander von Ost und West, von zwei Kulturen, die sich über fast ein halbes Jahrtausend vermischten und aufeinander einwirkten.\r\n\r\nGeneral\r\nComplete name                    : Macao.-.Insel.des.Gluecks.dtv.h264.mp4\r\nFormat                           : MPEG-4\r\nFormat profile                   : Base Media / Version 2\r\nCodec ID                         : mp42\r\nFile size                        : 174 MiB\r\nDuration                         : 14mn 48s\r\nOverall bit rate                 : 1 646 Kbps\r\nEncoded date                     : UTC 2011-09-25 16:18:13\r\nTagged date                      : UTC 2011-09-25 16:18:38\r\n\r\nVideo\r\nID                               : 1\r\nFormat                           : AVC\r\nFormat/Info                      : Advanced Video Codec\r\nFormat profile                   : Baseline@L3.0\r\nFormat settings, CABAC           : No\r\nFormat settings, ReFrames        : 2 frames\r\nCodec ID                         : avc1\r\nCodec ID/Info                    : Advanced Video Coding\r\nDuration                         : 14mn 48s\r\nBit rate mode                    : Variable\r\nBit rate                         : 1 450 Kbps\r\nWidth                            : 720 pixels\r\nHeight                           : 400 pixels\r\nDisplay aspect ratio             : 16:9\r\nFrame rate mode                  : Constant\r\nFrame rate                       : 25.000 fps\r\nColor space                      : YUV\r\nChroma subsampling               : 4:2:0\r\nBit depth                        : 8 bits\r\nScan type                        : Progressive\r\nBits/(Pixel*Frame)               : 0.201\r\nStream size                      : 154 MiB (88%)\r\nTitle                            : Apple Video Mediensteuerung\r\nEncoded date                     : UTC 2011-09-25 16:18:12\r\nTagged date                      : UTC 2011-09-25 16:18:38\r\nColor primaries                  : BT.601-6 525, BT.1358 525, BT.1700 NTSC, SMPTE 170M\r\nTransfer characteristics         : BT.709-5, BT.1361\r\nMatrix coefficients              : BT.601-6 525, BT.1358 525, BT.1700 NTSC, SMPTE 170M\r\n\r\nAudio\r\nID                               : 2\r\nFormat                           : AAC\r\nFormat/Info                      : Advanced Audio Codec\r\nFormat profile                   : LC\r\nCodec ID                         : 40\r\nDuration                         : 14mn 48s\r\nBit rate mode                    : Constant\r\nBit rate                         : 192 Kbps\r\nChannel(s)                       : 2 channels\r\nChannel positions                : Front: L R\r\nSampling rate                    : 48.0 KHz\r\nCompression mode                 : Lossy\r\nStream size                      : 20.3 MiB (12%)\r\nTitle                            : Apple Ton Mediensteuerung\r\nLanguage                         : German\r\nEncoded date                     : UTC 2011-09-25 16:18:12\r\nTagged date                      : UTC 2011-09-25 16:18:38
Macao.-.Insel.des.Gluecks.dtv.h264.mp4 182.868 MB
Gathering some info...

Register and log in Isohunt and see no captcha anymore!

4000 symbols left
Hash 9C2B8ECC3DC62940A7CFAC4F67178C77C8A7167C