Sadda Haq - Rockstar (2011) (1080p) By RAVI

Size 92.961 MB   0 seeders     Added 2011-10-02 02:44:30

Stream torrent
Starting‥ You need BitLord! Get it from BitLord.com
10
To download or stream you need BitLord. Visit them at BitLord.com
Media info: Sadda Haq - Rockstar (2011) (1080p) By { RAVI } General Complete name : Sadda Haq - Rockstar (2011) (1080p) By { RAVI }.mp4 Format : MPEG-4 Format profile : Base Media / Version 2 Codec ID : mp42 File size : 88.7 MiB Duration : 2mn 4s Overall bit rate mode : Variable Overall bit rate : 5 994 Kbps Encoded date : UTC 2011-09-21 06:01:31 Encoder : { RAVI } Video ID : 1 Format : AVC Format/Info : Advanced Video Codec Format profile : High@L4.0 Format settings, CABAC : Yes Format settings, ReFrames : 1 frame Codec ID : avc1 Codec ID/Info : Advanced Video Coding Duration : 2mn 4s Bit rate : 5 837 Kbps Maximum bit rate : 11.5 Mbps Width : 1 920 pixels Height : 1 080 pixels Display aspect ratio : 16:9 Frame rate mode : Constant Frame rate : 25.000 fps Color space : YUV Chroma subsampling : 4:2:0 Bit depth : 8 bits Scan type : Progressive Bits/(Pixel*Frame) : 0.113 Stream size : 86.3 MiB (97%) Audio ID : 2 Format : AAC Format/Info : Advanced Audio Codec Format profile : LC Codec ID : 40 Duration : 2mn 4s Bit rate mode : Variable Bit rate : 152 Kbps Maximum bit rate : 177 Kbps Channel(s) : 2 channels Channel positions : Front: L R Sampling rate : 44.1 KHz Compression mode : Lossy Stream size : 2.25 MiB (3%) image
Sadda Haq.mp4 92.961 MB
Gathering some info...

Register and log in Isohunt and see no captcha anymore!

4000 symbols left
Hash 2B2E7C9961187DE3FC8D2D9B845A6C53BB797262