imdb
rating

6.6
The Missouri Breaks

The Missouri Breaks (1976)

Drama, Western

Full description
quality   h264 hd web-dl dvdrip x264 fullhd bd

The Missouri Breaks 1976 DVD9rip English Klam

Size 1.893 GB   1 seeders     Added 2011-10-02 16:43:02

Stream torrent
Starting‥ You need BitLord! Get it from 1BitLord.com
To download or stream you need BitLord. Visit them at BitLord.com
[img] image[/img]

With: Marlon Brando, Jack Nicholson en Randy Quaid

Tom Logan is een veedief. Om een alibi te hebben koopt hij een ranch vlakbij die van David Braxton. Tom en Braxton's dochter Jane beginnen al snel een liefdesrelatie. Maar Braxton heeft net Lee Clayton ingehuurd, een beroemde moordenaar, om van de veedieven af te komen.

Tom Logan is a horse thief. Rancher David Braxton has horses, and a daughter, worth stealing. But Braxton has just hired Lee Clayton...

http://www.imdb.com/title/tt0074906

------------------ Dutch Friends ------------------
You can find my Friends at: http://www.Film-Test.nl 
------ They got my dutch subs ----- and more ------

General:

Complete name                    : The Missouri Breaks\The Missouri Breaks.avi
Format                           : AVI
Format/Info                      : Audio Video Interleave
File size                        : 1.76 GiB
Duration                         : 2h 0mn
Overall bit rate                 : 2090 Kbps

Video:

Format                           : MPEG-4 Visual
Format profile                   : Simple@L3
Format settings, BVOP            : No
Format settings, QPel            : No
Format settings, GMC             : No warppoints
Format settings, Matrix          : Default (H.263)
Codec ID                         : XVID
Codec ID/Hint                    : XviD
Duration                         : 2h 0mn
Bit rate                         : 1 887 Kbps
Width                            : 652 pixels
Height                           : 352 pixels
Display aspect ratio             : 1.852
Frame rate                       : 25.000 fps
Color space                      : YUV
Chroma subsampling               : 4:2:0
Bit depth                        : 8 bits
Scan type                        : Progressive
Bits/(Pixel*Frame)               : 0.329
Stream size                      : 1.59 GiB (90%)
Writing library                  : XviD 1.1.2 (UTC 2006-11-01)

Audio:

Format                           : AC-3
Format/Info                      : Audio Coding 3
Mode extension                   : CM (complete main)
Codec ID                         : 2000
Duration                         : 2h 0mn
Bit rate mode                    : Constant
Bit rate                         : 192 Kbps
Channel(s)                       : 2 channels
Channel positions                : Front: L R
Sampling rate                    : 48.0 KHz
Bit depth                        : 16 bits
Stream size                      : 166 MiB (9%)
Alignment                        : Aligned on interleaves
Interleave, duration             : 32 ms (0.80 video frame)
Interleave, preload duration     : 256 ms
The Missouri Breaks/Cover/www.Film-Test.nl.JPG 36.286 KB
The Missouri Breaks/New Dutch Site.txt 117 B
The Missouri Breaks/The Missouri Breaks.avi 1.893 GB
Gathering some info...

Register and log in Isohunt and see no captcha anymore!

4000 symbols left
Hash df788b98743ea5500a886859f84b5ac2e789d7c3

Related torrents for "The Missouri Breaks 1976 DVD9rip English Klam"

Torrent search:

english 1976