Mahavishnu Orchestra - The Inner Mounting Flame[Eac Flac Cue-TNTVillage]

Size 312.835 MB   12 seeders     Added 2011-10-05 02:32:51

Stream torrent
Starting‥ You need BitLord! Get it from 1BitLord.com
To download or stream you need BitLord. Visit them at BitLord.com
.: Original Release:.
http://www.tntvillage.scambioetico.org/?act=showrelease&id=266856

[::Cover::]

[img]image[/img]

Artist: Mahavishnu Orchestra
Title: The Inner Mounting Flame [1998 Remastered]
Genre: Jazz-Rock
Year: 1971

[ :: Tracklist :: ]
1. 	Meeting of the spirits 	        [6:53]
2. 	Dawn 		                    [5:11]
3. 	Noonward race 		            [6:29]
4. 	A lotus on Irish streams 		[5:41]
5. 	Vital transformation 		    [6:17]
6. 	The dance of Maya 		        [7:18]
7. 	You know, you know 		        [5:09]
8. 	Awakening 		                [3:34]

[ :: Technical Data :: ]
Encoder: EAC 1.02 b3 (Secure Mode,Test & Copy,AccurateRip)
Codec: Flac 1.2.1
Profile: 6

EAC LOG:
[quote]
Exact Audio Copy V1.0 beta 2 from 29. April 2011

EAC extraction logfile from 4. October 2011, 19:04

The Mahavishnu Orchestra with John Mclaughlin / The Inner Mounting Flame

Used drive : PIONEER DVD-RW DVR-108 Adapter: 1 ID: 0

Read mode : Secure
Utilize accurate stream : Yes
Defeat audio cache : Yes
Make use of C2 pointers : No

Read offset correction : 48
Overread into Lead-In and Lead-Out : No
Fill up missing offset samples with silence : Yes
Delete leading and trailing silent blocks : No
Null samples used in CRC calculations : Yes
Used interface : Installed external ASPI interface
Gap handling : Appended to previous track

Used output format : User Defined Encoder
Selected bitrate : 768 kBit/s
Quality : High
Add ID3 tag : No
Command line compressor : C:\NoUAC\Exact Audio Copy\FLAC\FLAC.EXE
Additional command line options : -6 -V -T "ARTIST=%artist%" -T "TITLE=%title%" -T "ALBUM=%albumtitle%"
-T "DATE=%year%" -T "TRACKNUMBER=%tracknr%" -T "GENRE=%genre%"
-T "COMMENT=EAC1.0b2 Secure Mode, Test & Copy, AccurateRip, FLAC 1.2.1 -6 (by Paky)"


TOC of the extracted CD

Track | Start | Length | Start sector | End sector
---------------------------------------------------------
1 | 0:00.00 | 6:53.47 | 0 | 31021
2 | 6:53.47 | 5:11.63 | 31022 | 54409
3 | 12:05.35 | 6:29.57 | 54410 | 83641
4 | 18:35.17 | 5:41.25 | 83642 | 109241
5 | 24:16.42 | 6:17.43 | 109242 | 137559
6 | 30:34.10 | 7:18.32 | 137560 | 170441
7 | 37:52.42 | 5:09.25 | 170442 | 193641
8 | 43:01.67 | 3:33.08 | 193642 | 209624


Track 1

Filename E:\The Mahavishnu Orchestra with John Mclaughlin (1971) - The Inner Mounting Flame\01 - Meeting of the Spirits.wav

Pre-gap length 0:00:02.00

Peak level 100.0 %
Extraction speed 4.6 X
Track quality 99.9 %
Test CRC 30DCE751
Copy CRC 30DCE751
Accurately ripped (confidence 14) [FE080147] (AR v2)
Copy OK

Track 2

Filename E:\The Mahavishnu Orchestra with John Mclaughlin (1971) - The Inner Mounting Flame\02 - Dawn.wav

Pre-gap length 0:00:01.22

Peak level 100.0 %
Extraction speed 5.5 X
Track quality 100.0 %
Test CRC 29E66605
Copy CRC 29E66605
Accurately ripped (confidence 14) [9CE4DA6F] (AR v2)
Copy OK

Track 3

Filename E:\The Mahavishnu Orchestra with John Mclaughlin (1971) - The Inner Mounting Flame\03 - Noonward Race.wav

Pre-gap length 0:00:01.23

Peak level 100.0 %
Extraction speed 5.7 X
Track quality 99.9 %
Test CRC BA1EE174
Copy CRC BA1EE174
Accurately ripped (confidence 14) [2EC1FBE8] (AR v2)
Copy OK

Track 4

Filename E:\The Mahavishnu Orchestra with John Mclaughlin (1971) - The Inner Mounting Flame\04 - A Lotus on Irish Streams.wav

Pre-gap length 0:00:01.22

Peak level 100.0 %
Extraction speed 6.6 X
Track quality 100.0 %
Test CRC 94EB3573
Copy CRC 94EB3573
Accurately ripped (confidence 14) [DCAA5877] (AR v2)
Copy OK

Track 5

Filename E:\The Mahavishnu Orchestra with John Mclaughlin (1971) - The Inner Mounting Flame\05 - Vital Transformation.wav

Pre-gap length 0:00:01.22

Peak level 100.0 %
Extraction speed 7.1 X
Track quality 100.0 %
Test CRC 978D0B9B
Copy CRC 978D0B9B
Accurately ripped (confidence 13) [0743C5B2] (AR v2)
Copy OK

Track 6

Filename E:\The Mahavishnu Orchestra with John Mclaughlin (1971) - The Inner Mounting Flame\06 - The Dance of Maya.wav

Pre-gap length 0:00:01.23

Peak level 100.0 %
Extraction speed 7.7 X
Track quality 100.0 %
Test CRC 9CF63E14
Copy CRC 9CF63E14
Accurately ripped (confidence 13) [E1BFB6CB] (AR v2)
Copy OK

Track 7

Filename E:\The Mahavishnu Orchestra with John Mclaughlin (1971) - The Inner Mounting Flame\07 - You Know, You Know.wav

Pre-gap length 0:00:01.20

Peak level 100.0 %
Extraction speed 7.9 X
Track quality 100.0 %
Test CRC 919A0D51
Copy CRC 919A0D51
Accurately ripped (confidence 13) [9F9591CD] (AR v2)
Copy OK

Track 8

Filename E:\The Mahavishnu Orchestra with John Mclaughlin (1971) - The Inner Mounting Flame\08 - Awakening.wav

Pre-gap length 0:00:01.20

Peak level 100.0 %
Extraction speed 6.7 X
Track quality 99.9 %
Test CRC A3E13E3C
Copy CRC A3E13E3C
Accurately ripped (confidence 13) [60B80260] (AR v2)
Copy OK


All tracks accurately ripped

No errors occurred

End of status report

==== Log checksum 7ADEB23D9E4210449A3AE9D2C2B1961179FFAAD61D3787A644CE4EE0919D9AA9 ====
[/quote]
The Mahavishnu Orchestra with John Mclaughlin (1971) - The Inner Mounting Flame/01 - Meeting of the Spirits.flac 48.816 MB
The Mahavishnu Orchestra with John Mclaughlin (1971) - The Inner Mounting Flame/02 - Dawn.flac 32.428 MB
The Mahavishnu Orchestra with John Mclaughlin (1971) - The Inner Mounting Flame/03 - Noonward Race.flac 46.132 MB
Gathering some info...

Register and log in Isohunt and see no captcha anymore!

4000 symbols left
Hash 8798230819ec612edc1e609ab74b1f5cd6968b41

Related torrents for "Mahavishnu Orchestra - The Inner Mounting Flame[Eac Flac Cue-TNTVillage]"

Torrent search:

lossless lossless 1971