Reportage

Reportage (1988)

Children, Family

Full description

MNV Geo Reportage - Das Salz der Inka HDTV-720p h264 mp4 [mnvv2 info]

Size 742.195 MB   0 seeders     Added 2011-10-06 02:58:37

Stream torrent
Starting‥ You need BitLord! Get it from BitLord.com
To download or stream you need BitLord. Visit them at BitLord.com
Das Salz der Inkas\r\n\r\nWeißes Gold: Auf 3000 Metern hohen Gebirgsterrassen ernten peruanische Salzbauern das berühmte Maras-Salz. Damit sich ihr Knochenjob lohnt, wollen sie ihr weißes Gold nun selbst vermarkten.\r\n\r\nEin Film von Andrea Oster\r\n\r\nDie Salinen von Maras liegen im Hochland der peruanischen Anden auf über 3000 Höhenmetern. Sie bilden ein weit verzweigtes Salzlabyrinth, errichtet von Menschenhand. Tausende terrassenförmig angelegte Becken fangen das warme Salzwasser des Berges auf. Während das Wasser in der Sonne verdunstet, bleibt an den Rändern und am Wannenboden eine kostbare weiße Kruste zurück: das Maras-Salz. Noch heute gewinnen die Nachfahren der Inkas auf diese traditionelle Weise ihr \"Weißes Gold\" der Anden.\r\n\r\nJetzt, Anfang Mai, endet in Perus Hochland allmählich die Regenzeit. Sieben Monate lang lagen die Salinen brach. Nun kann die Familie von Emilia Atapaucar endlich mit der Säuberung der acht familieneigenen Salinenbecken beginnen. Sie benötigt die Einnahmen aus dem Salzverkauf dringend. Denn Mariella, die 23-jährige Tochter, steht kurz vor der Entbindung, und ein Aufenthalt im Krankenhaus ist teuer.\r\n\r\nBereits zur Zeit der Inkas dienten die Salinen von Maras als ergiebige Salzquelle. Im 16. Jahrhundert plünderten die spanischen Eroberer die Silber- und Salzvorkommen Perus. Heute ist Maras ein armes Bergdorf, dessen Bewohner die Salinen eigenständig bewirtschaften. Jede Bauernfamilie besitzt zwischen fünf und zehn Terrassenbecken, die sich an die steilen Andenhänge heften. Die meisten Bauern haben sich zu einer Kollektive zusammengeschlossen, doch wirklich ausreichend Geld verdient hier niemand. Das große Geschäft mit dem Salz machen andere: Exporteure, die das \"Weiße Gold der Anden\" zu hohen Preisen in die Industrieländer liefern. Seit einigen Jahren findet das Anden-Salz in Europa und Amerika immer mehr Liebhaber. 360°- GEO Reportage begleitet eine Salzbauernfamilie bei der mühevollen Ernte des kostbaren Salzes. Emilia Atapaucar hofft inständig, dass ihr Enkelkind nicht zu früh zur Welt kommt, damit sie in den ersten Wochen der Salzernte genug Geld für seine sichere Geburt verdienen kann.\r\n\r\n360°- GEO Reportage ist es gelungen, den Salzbauern in den Bergen Perus nahe zu kommen. Der Film zeigt den harten Alltag der Salineros inmitten der atemberaubend schönen Berglandschaft Südamerikas.\r\n\r\nGeneral\r\nComplete name                    : Geo.Reportage.-.Das.Salz.der.Inka.HDTV-720p.h264.mp4\r\nFormat                           : MPEG-4\r\nFormat profile                   : Base Media / Version 2\r\nCodec ID                         : mp42\r\nFile size                        : 708 MiB\r\nDuration                         : 42mn 35s\r\nOverall bit rate                 : 2 324 Kbps\r\nEncoded date                     : UTC 2011-10-03 02:37:33\r\nTagged date                      : UTC 2011-10-03 04:47:30\r\nWriting application              : HandBrake 0.9.5 2011010300\r\n\r\nVideo\r\nID                               : 1\r\nFormat                           : AVC\r\nFormat/Info                      : Advanced Video Codec\r\nFormat profile                   : High@L3.2\r\nFormat settings, CABAC           : Yes\r\nFormat settings, ReFrames        : 4 frames\r\nCodec ID                         : avc1\r\nCodec ID/Info                    : Advanced Video Coding\r\nDuration                         : 42mn 35s\r\nBit rate mode                    : Variable\r\nBit rate                         : 2 144 Kbps\r\nWidth                            : 1 280 pixels\r\nHeight                           : 720 pixels\r\nDisplay aspect ratio             : 16:9\r\nFrame rate mode                  : Variable\r\nFrame rate                       : 49.953 fps\r\nMinimum frame rate               : 1.852 fps\r\nMaximum frame rate               : 50.028 fps\r\nColor space                      : YUV\r\nChroma subsampling               : 4:2:0\r\nBit depth                        : 8 bits\r\nScan type                        : Progressive\r\nBits/(Pixel*Frame)               : 0.047\r\nStream size                      : 653 MiB (92%)\r\nWriting library                  : x264 core 112\r\nEncoding settings                : cabac=1 / ref=3 / deblock=1:0:0 / analyse=0x3:0x113 / me=hex / subme=7 / psy=1 / psy_rd=1.00:0.00 / mixed_ref=1 / me_range=16 / chroma_me=1 / trellis=1 / 8x8dct=1 / cqm=0 / deadzone=21,11 / fast_pskip=1 / chroma_qp_offset=-2 / threads=6 / sliced_threads=0 / nr=0 / decimate=1 / interlaced=0 / constrained_intra=0 / bframes=3 / b_pyramid=2 / b_adapt=2 / b_bias=0 / direct=1 / weightb=1 / open_gop=0 / weightp=2 / keyint=500 / keyint_min=50 / scenecut=40 / intra_refresh=0 / rc_lookahead=50 / rc=crf / mbtree=1 / crf=27.0 / qcomp=0.60 / qpmin=3 / qpmax=51 / qpstep=4 / ip_ratio=1.40 / aq=1:1.00\r\nEncoded date                     : UTC 2011-10-03 02:37:33\r\nTagged date                      : UTC 2011-10-03 04:47:30\r\nColor primaries                  : BT.709-5, BT.1361, IEC 61966-2-4, SMPTE RP177\r\nTransfer characteristics         : BT.709-5, BT.1361\r\nMatrix coefficients              : BT.709-5, BT.1361, IEC 61966-2-4 709, SMPTE RP177\r\n\r\nAudio\r\nID                               : 2\r\nFormat                           : AAC\r\nFormat/Info                      : Advanced Audio Codec\r\nFormat profile                   : LC\r\nCodec ID                         : 40\r\nDuration                         : 42mn 33s\r\nBit rate mode                    : Variable\r\nBit rate                         : 172 Kbps\r\nMaximum bit rate                 : 279 Kbps\r\nChannel(s)                       : 2 channels\r\nChannel positions                : Front: L R\r\nSampling rate                    : 48.0 KHz\r\nCompression mode                 : Lossy\r\nStream size                      : 52.3 MiB (7%)\r\nLanguage                         : German\r\nEncoded date                     : UTC 2011-10-03 02:37:33\r\nTagged date                      : UTC 2011-10-03 04:47:30
Geo.Reportage.-.Das.Salz.der.Inka.HDTV-720p.h264.mp4 742.195 MB
Gathering some info...

Register and log in Isohunt and see no captcha anymore!

4000 symbols left
Hash 6A6222072AB3C7590B1811EC2805B36D8539CE4E

Related torrents for "MNV Geo Reportage - Das Salz der Inka HDTV-720p h264 mp4 [mnvv2 info]"

Torrent search:

h264 hdtv hd