MNV VA Nintendocore FLAC Log MP3 VBR [mnvv2 info]

Size 5.724 GB   0 seeders     Added 2011-10-07 02:43:51

Stream torrent
Starting‚Ä• You need BitLord! Get it from BitLord.com
To download or stream you need BitLord. Visit them at BitLord.com
Track List:\r\n01.Megaman 2-Flashman [2:08]\r\n02.Double Dragon 2-Stage 2[1:45]\r\n03.Goonies 2[2:19]\r\n04.Bubble Bobble [1:45]\r\n05.Bubble Bobble -Shark Skeleton [0:32]\r\n06.Wizards and Warriors -Intro [1:09]\r\n07.Bomberman 2[2:29]\r\n08.Bionic Commando -P.O.W. Camp [1:08]\r\n09.Super Mario Bros. 2-Underworld [0:37]\r\n10.Super Mario Bros. 2-Overworld [1:41]\r\n11.Contra -Snowfields [1:10]\r\n12.Zelda -Fortress [1:08]\r\n13.Batman 2[2:36]\r\n14.Megaman 3-Dr. Wiley Stage [2:00]\r\n15.Double Dragon 2(story, and boss music) [1:59]\r\n16.Castlevania 3-Epitaph [2:04]\r\n17.Ninja Gaiden -Mine Shaft [1:51]\r\n18.Mario 3-Underworld [0:55]\r\n19.Blastermaster -Stage 2[1:04]\r\n20.Ghosts nGoblins -Intro [0:04]\r\n21.Ghosts nGoblins [1:07]\r\n22.Castlevania -Stage 3[2:13]\r\n23.Marble Madness [1:22]\r\n24.Metal Gear -Jungle [2:20]\r\n25.Contra -Boss Music [2:18]\r\n26.Castlevania 3-Evergreen [2:00]\r\n\r\nRip Info:\r\nEAC (matching CRCs, proper read offset correction, etc)\r\nIncludes log, cue, m3u files.\r\n\r\nIf you played Nintendo as much as Idid back in the day youll love these guys.\r\n\r\nLog\r\nExact Audio Copy V0.99 prebeta 3from 28. July 2007\r\n\r\nEAC extraction logfile from 20. October 2007, 19:14\r\n\r\nThe Advantage /The Advantage\r\n\r\nUsed drive  : 16X8 DVD DUAL  Adapter: 1 ID: 0\r\nRead mode  :Secure\r\nUtilize accurate stream :Yes\r\nDefeat audio cache  :Yes\r\nMake use of C2 pointers :No\r\n\r\nRead offset correction  :91\r\nOverread into Lead-In and Lead-Out  :No\r\nFill up missing offset samples with silence :Yes\r\nDelete leading and trailing silent blocks  :No\r\nNull samples used in CRC calculations  :Yes\r\nUsed interface  :Native Win32 interface for Win NT  2000\r\nGap handling  :Appended to previous track\r\n\r\nUsed output format  :User Defined Encoder\r\nSelected bitrate  :128 kBit/s\r\nQuality  :High\r\nAdd ID3 tag  :No\r\nCommand line compressor  :C:\\Program_Files\\FLAC\\flac.exe\r\nAdditional command line options :-V -6 -T artista -T titlet -T albumg -T datey -T\r\ntracknumbern -T genrem s\r\nTOC of the extracted CD\r\n\r\nTrack  Start  Length  Start sector  End sector\r\n---------------------------------------------------------\r\n1 0:00.00  2:08.60  0 9659\r\n2 2:08.60  1:45.10  9660  17544\r\n3 3:53.70  2:19.03  17545  27972\r\n4 6:12.73  1:45.13  27973  35860\r\n5 7:58.11  0:32.28  35861  38288\r\n6 8:30.39  1:09.41  38289  43504\r\n7 9:40.05  2:29.21  43505  54700\r\n8 12:09.26  1:08.72  54701  59872\r\n9 13:18.23  0:37.72  59873  62719\r\n10  13:56.20  1:41.52  62720  70346\r\n11  15:37.72  1:10.16  70347  75612\r\n12  16:48.13  1:08.60  75613  80772\r\n13  17:56.73  2:36.14  80773  92486\r\n14  20:33.12  2:00.48  92487  101534\r\n15  22:33.60  1:59.31  101535  110490\r\n16  24:33.16  2:04.59  110491  119849\r\n17  26:38.00  1:51.27  119850  128201\r\n18  28:29.27  0:55.62  128202  132388\r\n19  29:25.14  1:04.46  132389  137234\r\n20  30:29.60  0:04.41  137235  137575\r\n21  30:34.26  1:07.47  137576  142647\r\n22  31:41.73  2:13.72  142648  152694\r\n23  33:55.70  1:22.63  152695  158907\r\n24  35:18.58  2:20.44  158908  169451\r\n25  37:39.27  2:18.41  169452  179842\r\n26  39:57.68  1:59.57  179843  188824\r\n\r\nTrack  1\r\nFilename c:\\windows\\profiles\\Desktop\\The Advantage -The Advantage\\The Advantage\r\n(2004) The Advantage\\01 -Megaman 2-Flashman.wav\r\n\r\nPre-gap length  0:00:02.00\r\n\r\nPeak level 99.2\r\nTrack quality 100.0\r\nTest CRC B7777C8C\r\nCopy CRC B7777C8C\r\nCopy OK\r\n\r\nTrack  2\r\nFilename c:\\windows\\profiles\\Desktop\\The Advantage -The Advantage\\The Advantage\r\n(2004) The Advantage\\02 -Double Dragon 2-Stage 2.wav\r\n\r\nPre-gap length  0:00:00.24\r\n\r\nPeak level 98.8\r\nTrack quality 100.0\r\nTest CRC 7A2AA27E\r\nCopy CRC 7A2AA27E\r\nCopy OK\r\n\r\nTrack  3\r\nFilename c:\\windows\\profiles\\Desktop\\The Advantage -The Advantage\\The Advantage\r\n(2004) The Advantage\\03 -Goonies 2.wav\r\n\r\nPeak level 98.8\r\nTrack quality 100.0\r\nTest CRC 440F207D\r\nCopy CRC 440F207D\r\nCopy OK\r\n\r\nTrack  4\r\nFilename c:\\windows\\profiles\\Desktop\\The Advantage -The Advantage\\The Advantage\r\n(2004) The Advantage\\04 -Bubble Bobble.wav\r\n\r\nPre-gap length  0:00:00.48\r\n\r\nPeak level 87.1\r\nTrack quality 100.0\r\nTest CRC B2C1D019\r\nCopy CRC B2C1D019\r\nCopy OK\r\n\r\nTrack  5\r\nFilename c:\\windows\\profiles\\Desktop\\The Advantage -The Advantage\\The Advantage\r\n(2004) The Advantage\\05 -Bubble Bobble -Shark Skeleton.wav\r\n\r\nPre-gap length  0:00:00.66\r\n\r\nPeak level 98.8\r\nTrack quality 100.0\r\nTest CRC C7183BF3\r\nCopy CRC C7183BF3\r\nCopy OK\r\n\r\nTrack  6\r\nFilename c:\\windows\\profiles\\Desktop\\The Advantage -The Advantage\\The Advantage\r\n(2004) The Advantage\\06 -Wizards and Warriors -Intro.wav\r\n\r\nPre-gap length  0:00:00.34\r\n\r\nPeak level 98.8\r\nTrack quality 100.0\r\nTest CRC 38D6D30B\r\nCopy CRC 38D6D30B\r\nCopy OK\r\n\r\nTrack  7\r\nFilename c:\\windows\\profiles\\Desktop\\The Advantage -The Advantage\\The Advantage\r\n(2004) The Advantage\\07 -Bomberman 2.wav\r\n\r\nPeak level 98.8\r\nTrack quality 100.0\r\nTest CRC 9CBAB7EC\r\nCopy CRC 9CBAB7EC\r\nCopy OK\r\n\r\nTrack  8\r\nFilename c:\\windows\\profiles\\Desktop\\The Advantage -The Advantage\\The Advantage\r\n(2004) The Advantage\\08 -Bionic Commando -P.O.W. Camp.wav\r\n\r\nPeak level 99.1\r\nTrack quality 100.0\r\nTest CRC 799EC9F4\r\nCopy CRC 799EC9F4\r\nCopy OK\r\n\r\nTrack  9\r\nFilename c:\\windows\\profiles\\Desktop\\The Advantage -The Advantage\\The Advantage\r\n(2004) The Advantage\\09 -Super Mario Bros. 2-Underworld.wav\r\n\r\nPeak level 98.8\r\nTrack quality 100.0\r\nTest CRC 2EB43CD8\r\nCopy CRC 2EB43CD8\r\nCopy OK\r\n\r\nTrack 10\r\n\r\nFilename c:\\windows\\profiles\\Desktop\\The Advantage -The Advantage\\The Advantage\r\n(2004) The Advantage\\10 -Super Mario Bros. 2-Overworld.wav\r\n\r\nPeak level 98.8\r\nTrack quality 100.0\r\nTest CRC 474899FC\r\nCopy CRC 474899FC\r\nCopy OK\r\n\r\nTrack 11\r\n\r\nFilename c:\\windows\\profiles\\Desktop\\The Advantage -The Advantage\\The Advantage\r\n(2004) The Advantage\\11 -Contra -Snowfields.wav\r\n\r\nPeak level 77.6\r\nTrack quality 100.0\r\nTest CRC 65CFDB65\r\nCopy CRC 65CFDB65\r\nCopy OK\r\n\r\nTrack 12\r\n\r\nFilename c:\\windows\\profiles\\Desktop\\The Advantage -The Advantage\\The Advantage\r\n(2004) The Advantage\\12 -Zelda -Fortress.wav\r\n\r\nPeak level 98.8\r\nTrack quality 100.0\r\nTest CRC D14F4C58\r\nCopy CRC D14F4C58\r\nCopy OK\r\n\r\nTrack 13\r\n\r\nFilename c:\\windows\\profiles\\Desktop\\The Advantage -The Advantage\\The Advantage\r\n(2004) The Advantage\\13 -Batman 2.wav\r\n\r\nPre-gap length  0:00:00.96\r\n\r\nPeak level 99.0\r\nTrack quality 100.0\r\nTest CRC 928C34E5\r\nCopy CRC 928C34E5\r\nCopy OK\r\n\r\nTrack 14\r\n\r\nFilename c:\\windows\\profiles\\Desktop\\The Advantage -The Advantage\\The Advantage\r\n(2004) The Advantage\\14 -Megaman 3-Dr. Wiley Stage.wav\r\n\r\nPre-gap length  0:00:00.04\r\n\r\nPeak level 98.8\r\nTrack quality 100.0\r\nTest CRC 969C9353\r\nCopy CRC 969C9353\r\nCopy OK\r\n\r\nTrack 15\r\n\r\nFilename c:\\windows\\profiles\\Desktop\\The Advantage -The Advantage\\The Advantage\r\n(2004) The Advantage\\15 -Double Dragon 2(story, and boss music).wav\r\n\r\nPeak level 98.8\r\nTrack quality 100.0\r\nTest CRC 04E1DCEB\r\nCopy CRC 04E1DCEB\r\nCopy OK\r\n\r\nTrack 16\r\n\r\nFilename c:\\windows\\profiles\\Desktop\\The Advantage -The Advantage\\The Advantage\r\n(2004) The Advantage\\16 -Castlevania 3-Epitaph.wav\r\n\r\nPre-gap length  0:00:03.08\r\n\r\nPeak level 98.8\r\nTrack quality 100.0\r\nTest CRC E2366360\r\nCopy CRC E2366360\r\nCopy OK\r\n\r\nTrack 17\r\n\r\nFilename c:\\windows\\profiles\\Desktop\\The Advantage -The Advantage\\The Advantage\r\n(2004) The Advantage\\17 -Ninja Gaiden -Mine Shaft.wav\r\n\r\nPeak level 100.0\r\nTrack quality 100.0\r\nTest CRC 722E6F0F\r\nCopy CRC 722E6F0F\r\nCopy OK\r\n\r\nTrack 18\r\n\r\nFilename c:\\windows\\profiles\\Desktop\\The Advantage -The Advantage\\The Advantage\r\n(2004) The Advantage\\18 -Mario 3-Underworld.wav\r\n\r\nPre-gap length  0:00:00.02\r\n\r\nPeak level 98.8\r\nTrack quality 100.0\r\nTest CRC 0776F781\r\nCopy CRC 0776F781\r\nCopy OK\r\n\r\nTrack 19\r\n\r\nFilename c:\\windows\\profiles\\Desktop\\The Advantage -The Advantage\\The Advantage\r\n(2004) The Advantage\\19 -Blastermaster -Stage 2.wav\r\n\r\nPre-gap length  0:00:00.41\r\n\r\nPeak level 98.8\r\nTrack quality 100.0\r\nTest CRC F3382B1D\r\nCopy CRC F3382B1D\r\nCopy OK\r\n\r\nTrack 20\r\n\r\nFilename c:\\windows\\profiles\\Desktop\\The Advantage -The Advantage\\The Advantage\r\n(2004) The Advantage\\20 -Ghosts nGoblins -Intro.wav\r\n\r\nPeak level 98.8\r\nTrack quality 100.0\r\nTest CRC ACAF7D37\r\nCopy CRC ACAF7D37\r\nCopy OK\r\n\r\nTrack 21\r\n\r\nFilename c:\\windows\\profiles\\Desktop\\The Advantage -The Advantage\\The Advantage\r\n(2004) The Advantage\\21 -Ghosts nGoblins.wav\r\n\r\nPre-gap length  0:00:00.09\r\n\r\nPeak level 98.8\r\nTrack quality 100.0\r\nTest CRC 1000D96B\r\nCopy CRC 1000D96B\r\nCopy OK\r\n\r\nTrack 22\r\n\r\nFilename c:\\windows\\profiles\\Desktop\\The Advantage -The Advantage\\The Advantage\r\n(2004) The Advantage\\22 -Castlevania -Stage 3.wav\r\n\r\nPre-gap length  0:00:00.45\r\n\r\nPeak level 88.1\r\nTrack quality 100.0\r\nTest CRC 0E7273B8\r\nCopy CRC 0E7273B8\r\nCopy OK\r\n\r\nTrack 23\r\n\r\nFilename c:\\windows\\profiles\\Desktop\\The Advantage -The Advantage\\The Advantage\r\n(2004) The Advantage\\23 -Marble Madness.wav\r\n\r\nPeak level 98.8\r\nTrack quality 100.0\r\nTest CRC DDF2F3A4\r\nCopy CRC DDF2F3A4\r\nCopy OK\r\n\r\nTrack 24\r\n\r\nFilename c:\\windows\\profiles\\Desktop\\The Advantage -The Advantage\\The Advantage\r\n(2004) The Advantage\\24 -Metal Gear -Jungle.wav\r\n\r\nPeak level 100.0\r\nTrack quality 100.0\r\nTest CRC 35C7A9A4\r\nCopy CRC 35C7A9A4\r\nCopy OK\r\n\r\nTrack 25\r\n\r\nFilename c:\\windows\\profiles\\Desktop\\The Advantage -The Advantage\\The Advantage\r\n(2004) The Advantage\\25 -Contra -Boss Music.wav\r\n\r\nPre-gap length  0:00:01.60\r\n\r\nPeak level 98.8\r\nTrack quality 100.0\r\nTest CRC DA399C9E\r\nCopy CRC DA399C9E\r\nCopy OK\r\n\r\nTrack 26\r\n\r\nFilename c:\\windows\\profiles\\Desktop\\The Advantage -The Advantage\\The Advantage\r\n(2004) The Advantage\\26 -Castlevania 3-Evergreen.wav\r\n\r\nPeak level 98.8\r\nTrack quality 100.0\r\nTest CRC 564AE917\r\nCopy CRC 564AE917\r\nCopy OK\r\n\r\nNo errors occurred\r\n\r\nEnd of status report
2003 - R. Borlax/00 - R. Borlax.cue 1.642 KB
2003 - R. Borlax/00 - R. Borlax.log 2.829 KB
2003 - R. Borlax/01 - Seven Tentacles and Eight Flames.flac 25.527 MB
Gathering some info...

Register and log in Isohunt and see no captcha anymore!

4000 symbols left
Hash 75B52202EDA43CBA08462E3009587FEE6E4EB616